<?xml version="1.0" standalone="no"?>
<!DOCTYPE svg PUBLIC "-//W3C//DTD SVG 1.1//EN" "http://www.w3.org/Graphics/SVG/1.1/DTD/svg11.dtd" >
<svg>
<metadata>
Created by FontForge 20120731 at Wed Mar 13 09:27:22 2019
 By www-data
Copyright 2010, 2012 Adobe Systems Incorporated. All Rights Reserved.
</metadata>
<defs>
<font id="SourceSansPro-Semibold" horiz-adv-x="0" >
  <font-face 
    font-family="Source Sans Pro Semibold"
    font-weight="600"
    font-stretch="normal"
    units-per-em="1000"
    panose-1="2 11 6 3 3 4 3 2 2 4"
    ascent="750"
    descent="-250"
    x-height="491"
    cap-height="654"
    bbox="-212 -353 1192 963"
    underline-thickness="50"
    underline-position="-150"
    unicode-range="U+000D-FB02"
  />
<missing-glyph horiz-adv-x="672" 
d="M84 660h504v-660h-504v660zM277 340l-111 209v-416zM505 133v416l-110 -209zM440 75l-56 104l-46 100h-4l-47 -100l-57 -104h210zM338 401l46 94l48 89h-193l49 -89l46 -94h4z" />
    <glyph glyph-name="f_f" unicode="ff" horiz-adv-x="616" 
d="M624 615q-27 12 -53 12q-63 0 -63 -83v-53h96v-91h-96v-400h-115v400h-185v-400h-115v400h-66v86l66 5v43q0 38 10 70t30.5 55t52.5 36t77 13q28 0 53 -5t43 -13l-22 -86q-14 7 -28 10t-34 3q-31 0 -49 -20.5t-18 -62.5v-43h185v51q0 38 9 70.5t29 56t50.5 36.5t74.5 13
q27 0 50 -5t40 -12z" />
    <glyph glyph-name="f_t" unicode="ft" horiz-adv-x="642" 
d="M627 6q-20 -7 -45.5 -12.5t-55.5 -5.5q-42 0 -71.5 13t-48 36.5t-27 56t-8.5 72.5v234h-163v-400h-115v400h-66v86l66 5v51q0 38 9 70.5t29 56t50.5 36.5t74.5 13q26 0 49.5 -5t40.5 -12l-22 -86q-27 12 -54 12q-62 0 -62 -83v-53h169l14 134h95v-134h126v-91h-126v-234
q0 -86 70 -86q13 0 26.5 3t24.5 8z" />
    <glyph glyph-name=".notdef" horiz-adv-x="672" 
d="M84 660h504v-660h-504v660zM277 340l-111 209v-416zM505 133v416l-110 -209zM440 75l-56 104l-46 100h-4l-47 -100l-57 -104h210zM338 401l46 94l48 89h-193l49 -89l46 -94h4z" />
    <glyph glyph-name=".null" 
 />
    <glyph glyph-name="nonmarkingreturn" horiz-adv-x="333" 
 />
    <glyph glyph-name="NULL" 
 />
    <glyph glyph-name="NULL" 
 />
    <glyph glyph-name="CR" unicode="&#xd;" horiz-adv-x="205" 
 />
    <glyph glyph-name="space" unicode=" " horiz-adv-x="205" 
 />
    <glyph glyph-name="exclam" unicode="!" horiz-adv-x="315" 
d="M103 556l-3 114h116l-4 -114l-16 -341h-77zM83 66q0 34 21.5 56t53.5 22t53 -22t21 -56t-21 -56t-53 -22t-53.5 22t-21.5 56z" />
    <glyph glyph-name="quotedbl" unicode="&#x22;" horiz-adv-x="482" 
d="M82 575l-4 113h118l-3 -113l-23 -183h-66zM289 575l-4 113h118l-3 -113l-23 -183h-66z" />
    <glyph glyph-name="numbersign" unicode="#" horiz-adv-x="513" 
d="M112 195h-77v76h85l16 129h-81v76h91l22 174h69l-21 -174h117l23 174h68l-21 -174h80v-76h-89l-16 -129h85v-76h-94l-23 -195h-70l23 195h-117l-24 -195h-70zM308 271l16 129h-118l-16 -129h118z" />
    <glyph glyph-name="dollar" unicode="$" horiz-adv-x="513" 
d="M384 501q-28 26 -54 39.5t-62 13.5q-41 0 -64 -20.5t-23 -59.5q0 -30 20 -49.5t50.5 -36t65.5 -33t65.5 -39.5t50.5 -56.5t20 -83.5q0 -72 -40 -120.5t-115 -62.5v-103h-80v100q-46 5 -92.5 24.5t-80.5 51.5l52 78q35 -28 71 -45t77 -17q49 0 73 22.5t24 63.5
q0 33 -20 55t-50.5 40t-65.5 34.5t-65.5 39t-50.5 54t-20 78.5q0 70 40 116.5t108 58.5v102h80v-100q48 -6 82.5 -27.5t62.5 -50.5z" />
    <glyph glyph-name="percent" unicode="%" horiz-adv-x="841" 
d="M186 252q-69 0 -112.5 54.5t-43.5 153.5t43.5 152.5t112.5 53.5t112.5 -53.5t43.5 -152.5t-43.5 -153.5t-112.5 -54.5zM186 319q32 0 52.5 33.5t20.5 107.5t-20.5 106.5t-52.5 32.5t-52.5 -32.5t-20.5 -106.5t20.5 -107.5t52.5 -33.5zM206 -12l357 678h70l-356 -678h-71z
M655 -12q-69 0 -112.5 54.5t-43.5 153.5t43.5 152.5t112.5 53.5t112.5 -53.5t43.5 -152.5t-43.5 -153.5t-112.5 -54.5zM655 55q32 0 52.5 33.5t20.5 107.5t-20.5 106.5t-52.5 32.5t-52.5 -32.5t-20.5 -106.5t20.5 -107.5t52.5 -33.5z" />
    <glyph glyph-name="ampersand" unicode="&#x26;" horiz-adv-x="639" 
d="M138 179q0 -46 32 -74t81 -28q27 0 53.5 10.5t51.5 28.5q-44 37 -83.5 78.5t-71.5 86.5q-28 -23 -45.5 -47.5t-17.5 -54.5zM207 504q0 -23 7 -46.5t19 -49.5q41 26 69 53t28 65q0 26 -12 44t-41 18q-31 0 -50.5 -23t-19.5 -61zM593 -12q-38 9 -78 26.5t-81 43.5
q-39 -32 -88 -51t-109 -19q-49 0 -87.5 14.5t-65.5 39t-41.5 58t-14.5 72.5q0 34 10 61t27.5 49.5t40 41t47.5 35.5q-20 38 -31 74t-11 70t11.5 63.5t33.5 51.5t52 35t68 13q67 0 105.5 -38t38.5 -101q0 -32 -12 -59t-32 -49.5t-45.5 -42.5t-52.5 -39q30 -41 68.5 -79.5
t80.5 -70.5q27 36 48 79.5t35 94.5h106q-18 -62 -46 -119t-66 -108q32 -20 62 -33.5t56 -18.5z" />
    <glyph glyph-name="quotesingle" unicode="'" horiz-adv-x="275" 
d="M82 575l-4 113h118l-3 -113l-23 -183h-66z" />
    <glyph glyph-name="parenleft" unicode="(" horiz-adv-x="324" 
d="M209 -178q-63 103 -97.5 213t-34.5 243t34.5 243t97.5 213l72 -32q-57 -97 -83.5 -205t-26.5 -219t26.5 -219t83.5 -205l-72 -32v0z" />
    <glyph glyph-name="parenright" unicode=")" horiz-adv-x="324" 
d="M43 -146q57 97 83.5 205t26.5 219t-26.5 219t-83.5 205l72 32q63 -103 97.5 -213t34.5 -243t-34.5 -243t-97.5 -213l-72 32v0z" />
    <glyph glyph-name="asterisk" unicode="*" horiz-adv-x="438" 
d="M92 421l58 98l-102 45l19 60l109 -25l11 113h63l11 -113l110 25l19 -60l-103 -45l58 -98l-51 -37l-75 87l-76 -87z" />
    <glyph glyph-name="plus" unicode="+" horiz-adv-x="513" 
d="M213 288h-179v84h179v189h87v-189h179v-84h-179v-189h-87v189z" />
    <glyph glyph-name="comma" unicode="," horiz-adv-x="275" 
d="M47 -119q48 19 74.5 51t26.5 70h-9q-29 0 -51.5 18.5t-22.5 52.5q0 32 22.5 51.5t54.5 19.5q41 0 63.5 -31t22.5 -87q0 -74 -40.5 -128t-115.5 -80z" />
    <glyph glyph-name="hyphen" unicode="-" horiz-adv-x="322" 
d="M42 294h238v-84h-238v84z" />
    <glyph glyph-name="period" unicode="." horiz-adv-x="275" 
d="M63 66q0 34 21.5 56t53.5 22t53 -22t21 -56t-21 -56t-53 -22t-53.5 22t-21.5 56z" />
    <glyph glyph-name="slash" unicode="/" horiz-adv-x="344" 
d="M245 710h78l-233 -870h-78z" />
    <glyph glyph-name="zero" unicode="0" horiz-adv-x="513" 
d="M256 -12q-100 0 -158 85.5t-58 247.5t58 244.5t158 82.5t158 -83t58 -244q0 -162 -58 -247.5t-158 -85.5zM256 78q23 0 42.5 12.5t33.5 41.5t22 75t8 114q0 67 -8 112.5t-22 73.5t-33.5 39.5t-42.5 11.5t-42.5 -11.5t-33.5 -39.5t-22 -73.5t-8 -112.5q0 -68 8 -114
t22 -75t33.5 -41.5t42.5 -12.5z" />
    <glyph glyph-name="one" unicode="1" horiz-adv-x="513" 
d="M74 94h142v418h-117v72q48 9 82.5 21.5t64.5 30.5h86v-542h125v-94h-383v94z" />
    <glyph glyph-name="two" unicode="2" horiz-adv-x="513" 
d="M38 67q66 64 119.5 118t91 100t57.5 86t20 76q0 51 -27 80.5t-78 29.5q-37 0 -67.5 -21t-56.5 -50l-64 64q44 47 90.5 72.5t112.5 25.5q46 0 83 -14t63 -39.5t40.5 -61.5t14.5 -80q0 -42 -18.5 -85.5t-50 -88t-73.5 -91.5t-89 -97q25 2 54 4.5t52 2.5h156v-98h-430v67z
" />
    <glyph glyph-name="three" unicode="3" horiz-adv-x="513" 
d="M79 152q29 -29 66 -49.5t85 -20.5q52 0 84.5 25.5t32.5 70.5q0 25 -9 45t-30.5 34t-57.5 21.5t-90 7.5v84q47 0 78.5 7.5t51 21t28 32.5t8.5 41q0 40 -25 62.5t-69 22.5q-38 0 -68.5 -16.5t-59.5 -43.5l-59 71q41 36 87.5 58t103.5 22q46 0 84 -11t65 -32.5t42 -53
t15 -71.5q0 -54 -29.5 -90t-81.5 -56v-4q57 -15 94.5 -55t37.5 -103q0 -44 -17.5 -78t-48 -57.5t-71 -36t-86.5 -12.5q-78 0 -130 26t-86 64z" />
    <glyph glyph-name="four" unicode="4" horiz-adv-x="513" 
d="M299 253v144q0 28 1.5 66t3.5 66h-4q-12 -25 -25 -49t-27 -50l-116 -177h167zM487 164h-80v-164h-108v164h-281v78l252 394h137v-383h80v-89z" />
    <glyph glyph-name="five" unicode="5" horiz-adv-x="513" 
d="M77 150q29 -27 65 -47.5t84 -20.5q54 0 88.5 32t34.5 90q0 57 -32 88t-85 31q-31 0 -52 -8.5t-50 -27.5l-55 35l19 314h340v-97h-240l-13 -154q20 10 39.5 15.5t44.5 5.5q41 0 77.5 -12t63.5 -36.5t43 -62t16 -88.5q0 -52 -18.5 -93t-49.5 -69t-71.5 -42.5t-84.5 -14.5
q-77 0 -129.5 26.5t-87.5 61.5z" />
    <glyph glyph-name="six" unicode="6" horiz-adv-x="513" 
d="M273 76q40 0 67.5 31t27.5 90q0 57 -26 85t-74 28q-27 0 -57 -16.5t-57 -56.5q9 -85 40.5 -123t78.5 -38zM402 506q-17 21 -44.5 34.5t-56.5 13.5q-30 0 -56.5 -12t-46.5 -39.5t-32.5 -72.5t-14.5 -111q28 35 65.5 55t72.5 20q41 0 75.5 -12t59 -36.5t38 -61.5t13.5 -87
q0 -48 -16 -86.5t-43 -65.5t-63.5 -42t-77.5 -15q-47 0 -89 18.5t-73.5 56.5t-50 97t-18.5 139q0 93 21 159t55.5 108t79.5 62t94 20q58 0 99.5 -21t70.5 -51z" />
    <glyph glyph-name="seven" unicode="7" horiz-adv-x="513" 
d="M168 0q4 85 15 155.5t31.5 134.5t52.5 124.5t78 124.5h-301v97h427v-70q-56 -69 -90.5 -131.5t-54.5 -128t-28.5 -139.5t-12.5 -167h-117v0z" />
    <glyph glyph-name="eight" unicode="8" horiz-adv-x="513" 
d="M142 175q0 -48 34 -76.5t83 -28.5q46 0 75.5 25t29.5 70q0 26 -12 44.5t-32.5 33t-48.5 26.5t-60 25q-30 -22 -49.5 -52t-19.5 -67zM299 359q26 26 39.5 53t13.5 57q0 42 -24.5 69.5t-69.5 27.5q-37 0 -62 -22.5t-25 -64.5q0 -24 10 -42t27.5 -31.5t40.5 -25t50 -21.5z
M41 163q0 30 9.5 54.5t25.5 44.5t36.5 36t43.5 28v4q-37 26 -62.5 62t-25.5 87q0 39 14.5 70t40 53t61 34t76.5 12q43 0 77.5 -12.5t59 -35t37.5 -54t13 -70.5q0 -24 -7.5 -45.5t-19.5 -40t-27.5 -34t-30.5 -26.5v-4q22 -12 42 -27.5t35 -35.5t24 -45t9 -57
q0 -37 -15.5 -68.5t-43.5 -55t-68 -36.5t-88 -13q-47 0 -86.5 13t-68 36t-45 55t-16.5 71z" />
    <glyph glyph-name="nine" unicode="9" horiz-adv-x="513" 
d="M244 326q27 0 57.5 17t56.5 57q-9 84 -41.5 122t-78.5 38q-39 0 -67 -31t-28 -89q0 -57 26.5 -85.5t74.5 -28.5zM109 130q18 -21 45.5 -34.5t56.5 -13.5q30 0 56.5 12t46.5 39.5t32.5 72.5t14.5 111q-28 -35 -66 -54.5t-73 -19.5q-41 0 -75 12t-58.5 36.5t-38 61.5
t-13.5 87q0 48 16 86.5t43 65.5t63.5 41.5t77.5 14.5q46 0 88 -18.5t73.5 -56.5t50 -96.5t18.5 -138.5q0 -93 -20.5 -159t-55 -108.5t-80 -62.5t-94.5 -20q-57 0 -99 21t-71 51z" />
    <glyph glyph-name="colon" unicode=":" horiz-adv-x="275" 
d="M63 408q0 34 21.5 56t53.5 22t53 -22t21 -56t-21 -56t-53 -22t-53.5 22t-21.5 56zM63 66q0 34 21.5 56t53.5 22t53 -22t21 -56t-21 -56t-53 -22t-53.5 22t-21.5 56z" />
    <glyph glyph-name="semicolon" unicode=";" horiz-adv-x="275" 
d="M63 408q0 34 21.5 56t53.5 22t53 -22t21 -56t-21 -56t-53 -22t-53.5 22t-21.5 56zM47 -119q48 19 74.5 51t26.5 70h-9q-29 0 -51.5 18.5t-22.5 52.5q0 32 22.5 51.5t54.5 19.5q41 0 63.5 -31t22.5 -87q0 -74 -40.5 -128t-115.5 -80z" />
    <glyph glyph-name="less" unicode="&#x3c;" horiz-adv-x="513" 
d="M34 374l445 173v-97l-193 -68l-135 -48v-4l135 -48l193 -68v-97l-445 173v84z" />
    <glyph glyph-name="equal" unicode="=" horiz-adv-x="513" 
d="M34 484h445v-84h-445v84zM34 261h445v-84h-445v84z" />
    <glyph glyph-name="greater" unicode="&#x3e;" horiz-adv-x="513" 
d="M479 290l-445 -173v97l193 68l135 48v4l-135 48l-193 68v97l445 -173v-84z" />
    <glyph glyph-name="question" unicode="?" horiz-adv-x="444" 
d="M157 215q-5 36 2.5 66t22 55t33 46.5t35 42t27.5 40.5t11 43q0 36 -21.5 58t-59.5 22q-31 0 -56 -14t-47 -38l-64 59q32 38 76 62.5t99 24.5q40 0 74 -10.5t59 -31.5t38.5 -52t13.5 -72q0 -32 -11.5 -57.5t-28.5 -48.5t-36.5 -44t-35 -44t-25 -49t-5.5 -58h-101zM134 66
q0 34 21 56t53 22t53.5 -22t21.5 -56t-21.5 -56t-53.5 -22t-53 22t-21 56z" />
    <glyph glyph-name="at" unicode="@" horiz-adv-x="875" 
d="M50 204q0 103 35 186.5t94 143t138 92t167 32.5q78 0 141.5 -25t108 -70.5t68.5 -109t24 -139.5q0 -67 -19.5 -117.5t-50.5 -84.5t-69 -51t-75 -17q-43 0 -73 19t-37 57h-2q-23 -30 -56 -49t-65 -19q-55 0 -90.5 38.5t-35.5 107.5q0 43 14.5 85.5t40.5 76.5t62 55.5
t80 21.5q52 0 78 -49h2l13 41h73l-43 -211q-25 -101 50 -101q23 0 46 13.5t41 38.5t29 60.5t11 80.5q0 57 -16.5 107t-50 87.5t-85.5 59.5t-123 22q-66 0 -128 -27t-110 -76.5t-77.5 -119t-29.5 -155.5q0 -74 23 -130t63 -93.5t94 -56.5t115 -19q42 0 83 11.5t74 29.5
l27 -64q-88 -50 -193 -50q-74 0 -140.5 23t-116.5 69.5t-79.5 115t-29.5 160.5zM342 205q0 -41 16.5 -59.5t44.5 -18.5q18 0 37 12t42 40l26 147q-22 35 -55 35q-26 0 -46.5 -15t-35 -38t-22 -50.5t-7.5 -52.5z" />
    <glyph glyph-name="A" unicode="A" horiz-adv-x="555" 
d="M359 268l-23 80q-15 52 -30 107t-29 109h-4q-14 -55 -28 -109.5t-30 -106.5l-23 -80h167zM385 177h-219l-51 -177h-119l214 654h136l213 -654h-123z" />
    <glyph glyph-name="B" unicode="B" horiz-adv-x="594" 
d="M82 654h209q50 0 93 -8.5t74 -27t48.5 -49.5t17.5 -76q0 -47 -27 -87t-85 -55v-4q71 -12 109 -50.5t38 -104.5q0 -49 -19 -85t-52.5 -60t-79.5 -35.5t-100 -11.5h-226v654zM280 383q69 0 99.5 25t30.5 71q0 45 -31.5 65t-95.5 20h-85v-181h82zM296 90q72 0 110.5 27
t38.5 83q0 51 -38 75.5t-111 24.5h-98v-210h98z" />
    <glyph glyph-name="C" unicode="C" horiz-adv-x="573" 
d="M47 325q0 80 23.5 143.5t64.5 107.5t96 67t118 23q60 0 107.5 -25t78.5 -58l-64 -72q-26 25 -54.5 39.5t-66.5 14.5q-40 0 -74 -16.5t-58.5 -47t-38 -74.5t-13.5 -99q0 -112 49 -175.5t131 -63.5q44 0 77 17t61 48l64 -71q-40 -46 -90.5 -70.5t-113.5 -24.5
q-62 0 -116.5 22t-94.5 65t-63 106t-23 144z" />
    <glyph glyph-name="D" unicode="D" horiz-adv-x="623" 
d="M82 654h174q150 0 234.5 -81t84.5 -243q0 -81 -21.5 -143t-62 -103.5t-98.5 -62.5t-131 -21h-180v654zM248 94q100 0 154 57.5t54 178.5q0 120 -54.5 175t-153.5 55h-50v-466h50z" />
    <glyph glyph-name="E" unicode="E" horiz-adv-x="534" 
d="M82 654h393v-98h-277v-167h235v-98h-235v-193h287v-98h-403v654z" />
    <glyph glyph-name="F" unicode="F" horiz-adv-x="506" 
d="M82 654h395v-98h-279v-185h237v-98h-237v-273h-116v654z" />
    <glyph glyph-name="G" unicode="G" horiz-adv-x="624" 
d="M47 325q0 80 24 143.5t66 107.5t99 67t123 23q34 0 63 -7t53 -18.5t44 -26.5t35 -31l-64 -72q-25 24 -54.5 39t-75.5 15q-44 0 -79.5 -16.5t-61 -47t-39.5 -74.5t-14 -99q0 -112 51 -175.5t150 -63.5q27 0 52 7.5t41 21.5v141h-123v95h227v-288q-34 -32 -89 -55t-122 -23
q-65 0 -121 22t-97 65t-64.5 106t-23.5 144z" />
    <glyph glyph-name="H" unicode="H" horiz-adv-x="660" 
d="M82 654h116v-263h264v263h116v-654h-116v290h-264v-290h-116v654z" />
    <glyph glyph-name="I" unicode="I" horiz-adv-x="279" 
d="M82 654h116v-654h-116v654z" />
    <glyph glyph-name="J" unicode="J" horiz-adv-x="491" 
d="M102 158q20 -36 46 -52.5t56 -16.5q46 0 69.5 28t23.5 98v439h116v-449q0 -45 -11.5 -84.5t-35 -69t-60.5 -46.5t-88 -17q-69 0 -116.5 28t-79.5 83z" />
    <glyph glyph-name="K" unicode="K" horiz-adv-x="594" 
d="M82 654h116v-297h3l233 297h128l-201 -255l235 -399h-128l-176 308l-94 -117v-191h-116v654z" />
    <glyph glyph-name="L" unicode="L" horiz-adv-x="499" 
d="M82 654h116v-556h271v-98h-387v654z" />
    <glyph glyph-name="M" unicode="M" horiz-adv-x="742" 
d="M82 654h127l118 -322l43 -124h4l43 124l115 322h128v-654h-109v299q0 23 1.5 50t3.5 54.5t5 54t5 49.5h-4l-53 -149l-113 -297h-53l-113 297l-52 149h-4q2 -23 4.5 -49.5t4.5 -54t3.5 -54.5t1.5 -50v-299h-106v654z" />
    <glyph glyph-name="N" unicode="N" horiz-adv-x="653" 
d="M82 654h119l203 -368l68 -139h4q-5 51 -10 109.5t-5 113.5v284h110v-654h-119l-203 368l-68 139h-4q5 -52 10 -109t5 -112v-286h-110v654z" />
    <glyph glyph-name="O" unicode="O" horiz-adv-x="671" 
d="M336 -12q-64 0 -117 23.5t-91.5 68t-59.5 107.5t-21 143q0 79 21 141.5t59.5 105.5t91.5 66t117 23t117 -23t91 -66t59 -105.5t21 -141.5q0 -80 -21 -143t-59 -107.5t-91 -68t-117 -23.5zM336 89q38 0 69.5 17t53.5 48.5t34 76t12 99.5q0 110 -46 172.5t-123 62.5
q-78 0 -124 -62.5t-46 -172.5q0 -55 12 -99.5t34.5 -76t53.5 -48.5t70 -17z" />
    <glyph glyph-name="P" unicode="P" horiz-adv-x="588" 
d="M82 654h220q54 0 99.5 -10t78.5 -34t51.5 -62.5t18.5 -95.5q0 -54 -19 -94t-52.5 -66.5t-79 -39t-97.5 -12.5h-104v-240h-116v654zM292 333q74 0 109 29.5t35 89.5q0 62 -36 85.5t-108 23.5h-94v-228h94z" />
    <glyph glyph-name="Q" unicode="Q" horiz-adv-x="671" 
d="M164 330q0 -55 12 -99.5t34 -76t53 -48.5t70 -17t70 17t53 48.5t34 76t12 99.5q0 110 -45.5 172.5t-123.5 62.5t-123.5 -62.5t-45.5 -172.5zM646 -153q-17 -8 -44 -13t-61 -5q-98 0 -164 46t-98 118q-53 9 -96 36.5t-74 70.5t-47.5 101t-16.5 129q0 79 21 141.5t59 105.5
t91 66t117 23t117 -23t91.5 -66t59.5 -105.5t21 -141.5q0 -68 -15.5 -124.5t-44.5 -99.5t-69.5 -71t-90.5 -39q23 -39 63.5 -56t88.5 -17q22 0 39.5 3t31.5 8z" />
    <glyph glyph-name="R" unicode="R" horiz-adv-x="596" 
d="M198 348h92q68 0 103 28t35 84q0 57 -35 79t-103 22h-92v-213zM438 0l-141 256h-99v-256h-116v654h220q51 0 95 -10t76.5 -32.5t51 -59.5t18.5 -92q0 -75 -35.5 -121t-95.5 -66l156 -273h-130z" />
    <glyph glyph-name="S" unicode="S" horiz-adv-x="542" 
d="M104 163q35 -33 80 -53.5t91 -20.5q55 0 84.5 23t29.5 61q0 20 -7.5 34t-21 24.5t-32.5 19.5t-41 18l-89 39q-24 10 -48 25t-42.5 36t-30 49t-11.5 64q0 39 16.5 72.5t45.5 58.5t69 39t88 14q58 0 111 -22.5t91 -60.5l-60 -74q-31 26 -65.5 41t-76.5 15
q-47 0 -74.5 -20.5t-27.5 -56.5q0 -19 8.5 -32.5t23 -24t33.5 -19t39 -16.5l88 -37q29 -12 53.5 -28t42 -37t27 -48.5t9.5 -63.5q0 -40 -16 -75t-46.5 -61.5t-74 -42t-98.5 -15.5q-66 0 -127 25t-108 71z" />
    <glyph glyph-name="T" unicode="T" horiz-adv-x="543" 
d="M214 556h-189v98h493v-98h-188v-556h-116v556z" />
    <glyph glyph-name="U" unicode="U" horiz-adv-x="652" 
d="M78 654h116v-376q0 -53 9.5 -89.5t27 -58.5t42 -31.5t54.5 -9.5t55 9.5t42.5 31.5t27.5 58.5t10 89.5v376h112v-367q0 -81 -17.5 -137.5t-49.5 -92.5t-77.5 -52.5t-102.5 -16.5t-103 16.5t-78.5 52.5t-50 92.5t-17.5 137.5v367z" />
    <glyph glyph-name="V" unicode="V" horiz-adv-x="533" 
d="M-5 654h123l92 -329q16 -56 28 -106t29 -107h4q17 57 29.5 107t28.5 106l91 329h118l-202 -654h-138z" />
    <glyph glyph-name="W" unicode="W" horiz-adv-x="797" 
d="M16 654h120l56 -330q8 -53 16.5 -105t16.5 -104h4q10 52 20.5 104.5t21.5 104.5l81 330h100l81 -330q11 -51 21.5 -103.5t21.5 -105.5h4q8 53 16 105l16 104l56 330h112l-126 -654h-144l-81 344q-8 38 -15 75.5t-14 75.5h-4q-7 -38 -14 -75.5t-15 -75.5l-79 -344h-142z
" />
    <glyph glyph-name="X" unicode="X" horiz-adv-x="538" 
d="M197 337l-174 317h129l73 -145q11 -23 22.5 -47t26.5 -53h4q12 29 22.5 53t21.5 47l69 145h123l-174 -322l186 -332h-129l-80 154q-13 26 -25.5 51.5t-26.5 55.5h-4q-13 -30 -25 -55.5t-24 -51.5l-77 -154h-123z" />
    <glyph glyph-name="Y" unicode="Y" horiz-adv-x="498" 
d="M191 243l-197 411h124l71 -167q14 -37 28.5 -71.5t29.5 -72.5h4q16 38 31.5 72.5t29.5 71.5l71 167h121l-197 -411v-243h-116v243z" />
    <glyph glyph-name="Z" unicode="Z" horiz-adv-x="537" 
d="M38 70l317 486h-287v98h430v-70l-316 -486h319v-98h-463v70z" />
    <glyph glyph-name="bracketleft" unicode="[" horiz-adv-x="324" 
d="M90 708h196v-64h-109v-733h109v-63h-196v860z" />
    <glyph glyph-name="backslash" unicode="\" horiz-adv-x="344" 
d="M21 710h78l234 -870h-79z" />
    <glyph glyph-name="bracketright" unicode="]" horiz-adv-x="324" 
d="M147 -89v733h-109v64h196v-860h-196v63h109z" />
    <glyph glyph-name="asciicircum" unicode="^" horiz-adv-x="513" 
d="M208 670h96l154 -391h-97l-55 151l-48 135h-4l-47 -135l-55 -151h-97z" />
    <glyph glyph-name="underscore" unicode="_" horiz-adv-x="500" 
d="M488 -64v-69h-476v69h476z" />
    <glyph glyph-name="grave" unicode="`" horiz-adv-x="549" 
d="M144 719h114l90 -146h-86z" />
    <glyph glyph-name="a" unicode="a" horiz-adv-x="523" 
d="M52 132q0 79 69 122t220 60q0 19 -5 36.5t-15.5 31t-27 21t-41.5 7.5q-37 0 -71.5 -14t-66.5 -34l-42 77q41 26 91.5 45t109.5 19q93 0 138 -54.5t45 -157.5v-291h-94l-9 54h-3q-33 -28 -70.5 -47t-81.5 -19q-65 0 -105.5 39.5t-40.5 104.5zM164 141q0 -33 19.5 -48
t50.5 -15q30 0 55 14t52 40v110q-50 -6 -84 -16t-54.5 -22.5t-29.5 -28.5t-9 -34z" />
    <glyph glyph-name="b" unicode="b" horiz-adv-x="564" 
d="M73 706h115v-182l-3 -82q31 27 67.5 44t74.5 17q46 0 82 -17.5t61 -50t38 -78.5t13 -103q0 -63 -17.5 -112.5t-46.5 -83.5t-67 -52t-79 -18q-34 0 -68.5 16t-65.5 46h-3l-10 -50h-91v706zM188 124q26 -23 51.5 -32t47.5 -9q49 0 82 42.5t33 126.5q0 74 -25 115t-81 41
q-52 0 -108 -55v-229z" />
    <glyph glyph-name="c" unicode="c" horiz-adv-x="462" 
d="M41 245q0 61 20 109t54 81t78.5 50.5t93.5 17.5q48 0 83.5 -16.5t60.5 -40.5l-55 -73q-20 17 -40 26.5t-43 9.5q-60 0 -97 -44.5t-37 -119.5q0 -74 36.5 -118.5t94.5 -44.5q30 0 55.5 12.5t45.5 29.5l48 -73q-35 -31 -77 -47t-84 -16q-50 0 -93.5 17t-75.5 50t-50 81
t-18 109z" />
    <glyph glyph-name="d" unicode="d" horiz-adv-x="564" 
d="M43 245q0 60 17.5 108t46.5 81t66.5 51t77.5 18q42 0 71 -14.5t58 -39.5l-4 79v178h115v-706h-95l-8 53h-4q-27 -27 -63 -46t-76 -19q-93 0 -147.5 67.5t-54.5 189.5zM162 246q0 -80 28.5 -121.5t82.5 -41.5q55 0 103 55v229q-26 23 -50.5 32t-49.5 9q-48 0 -81 -42
t-33 -120z" />
    <glyph glyph-name="e" unicode="e" horiz-adv-x="507" 
d="M41 245q0 60 19 108t50.5 81t72.5 51t84 18q50 0 88 -17t63.5 -48t38.5 -74t13 -94q0 -34 -5 -54h-312q8 -67 46.5 -103t98.5 -36q32 0 59.5 9.5t54.5 26.5l39 -72q-35 -23 -78 -38t-90 -15q-51 0 -95 17.5t-77 50.5t-51.5 80.5t-18.5 108.5zM370 289q0 59 -24.5 92
t-75.5 33q-44 0 -77 -31.5t-41 -93.5h218z" />
    <glyph glyph-name="f" unicode="f" horiz-adv-x="317" 
d="M324 615q-27 12 -54 12q-62 0 -62 -83v-53h96v-91h-96v-400h-115v400h-66v86l66 5v51q0 38 9 70.5t29 56t50.5 36.5t74.5 13q26 0 49.5 -5t40.5 -12z" />
    <glyph glyph-name="g" unicode="g" horiz-adv-x="520" 
d="M136 -72q0 -33 33.5 -51.5t92.5 -18.5q60 0 96.5 23.5t36.5 55.5q0 29 -22.5 39t-64.5 10h-67q-40 0 -67 7q-38 -29 -38 -65zM40 -89q0 31 18 57.5t52 47.5v4q-19 12 -31.5 32t-12.5 50q0 29 16.5 52.5t37.5 38.5v4q-25 19 -44.5 52.5t-19.5 77.5q0 42 16 75t42.5 55.5
t61.5 34t74 11.5q20 0 38.5 -3.5t33.5 -8.5h176v-85h-90q12 -14 20 -35.5t8 -47.5q0 -41 -14.5 -72t-39.5 -52t-59 -32t-73 -11q-16 0 -33 3t-34 10q-11 -10 -17.5 -20t-6.5 -27q0 -21 17.5 -33t62.5 -12h87q89 0 134.5 -28.5t45.5 -92.5q0 -36 -18.5 -68t-52.5 -55
t-82.5 -36.5t-108.5 -13.5q-44 0 -81.5 8t-64.5 24t-42.5 40t-15.5 56zM250 228q35 0 60 25.5t25 73.5q0 46 -24.5 71.5t-60.5 25.5t-61 -25t-25 -72q0 -48 25 -73.5t61 -25.5z" />
    <glyph glyph-name="h" unicode="h" horiz-adv-x="558" 
d="M73 706h115v-182l-4 -95q31 29 68.5 51.5t88.5 22.5q79 0 115 -50.5t36 -144.5v-308h-115v293q0 61 -18 86t-59 25q-32 0 -56.5 -15.5t-55.5 -45.5v-343h-115v706z" />
    <glyph glyph-name="i" unicode="i" horiz-adv-x="262" 
d="M131 577q-31 0 -51 18t-20 47t20 47.5t51 18.5t51 -18.5t20 -47.5t-20 -47t-51 -18zM73 491h115v-491h-115v491z" />
    <glyph glyph-name="j" unicode="j" horiz-adv-x="263" 
d="M74 491h116v-516q0 -39 -8 -72t-26.5 -57.5t-48.5 -38t-73 -13.5q-27 0 -46.5 4t-33.5 9l22 86q10 -3 20.5 -5.5t21.5 -2.5q33 0 44.5 22.5t11.5 65.5v518zM132 577q-30 0 -50.5 18t-20.5 47t20.5 47.5t50.5 18.5q31 0 51.5 -18.5t20.5 -47.5t-20.5 -47t-51.5 -18z" />
    <glyph glyph-name="k" unicode="k" horiz-adv-x="522" 
d="M73 706h113v-441h3l182 226h126l-168 -200l185 -291h-125l-126 213l-77 -88v-125h-113v706z" />
    <glyph glyph-name="l" unicode="l" horiz-adv-x="271" 
d="M73 706h115v-586q0 -21 8 -29.5t17 -8.5h7.5t10.5 2l15 -86q-23 -10 -61 -10q-62 0 -87 37t-25 101v580z" />
    <glyph glyph-name="m" unicode="m" horiz-adv-x="843" 
d="M73 491h95l8 -67h4q31 33 67.5 56t82.5 23q54 0 86.5 -23t49.5 -65q35 38 73 63t85 25q78 0 115 -50.5t37 -144.5v-308h-116v293q0 61 -18.5 86t-56.5 25q-46 0 -103 -61v-343h-115v293q0 61 -18.5 86t-57.5 25q-46 0 -103 -61v-343h-115v491z" />
    <glyph glyph-name="n" unicode="n" horiz-adv-x="560" 
d="M73 491h95l8 -66h4q33 32 71.5 55t89.5 23q79 0 115 -50.5t36 -144.5v-308h-115v293q0 61 -18 86t-59 25q-32 0 -56.5 -15.5t-55.5 -45.5v-343h-115v491z" />
    <glyph glyph-name="o" unicode="o" horiz-adv-x="549" 
d="M41 245q0 61 19 109t51.5 81t74.5 50.5t88 17.5t88.5 -17.5t74.5 -50.5t51.5 -81t19.5 -109t-19.5 -109t-51.5 -81t-74.5 -50t-88.5 -17t-88 17t-74.5 50t-51.5 81t-19 109zM159 245q0 -74 30.5 -118.5t84.5 -44.5t85 44.5t31 118.5q0 75 -31 119.5t-85 44.5t-84.5 -44.5
t-30.5 -119.5z" />
    <glyph glyph-name="p" unicode="p" horiz-adv-x="564" 
d="M188 -40v-154h-115v685h95l8 -52h4q31 26 69 45t79 19q46 0 81.5 -17.5t60.5 -50.5t38 -79t13 -103q0 -63 -17.5 -112.5t-46.5 -83t-67 -51.5t-79 -18q-32 0 -64 14t-62 40zM188 124q27 -23 52 -32t47 -9q49 0 82 42.5t33 126.5q0 74 -25 115t-81 41q-52 0 -108 -55v-229
z" />
    <glyph glyph-name="q" unicode="q" horiz-adv-x="561" 
d="M43 245q0 60 17.5 108t46.5 81t66.5 51t77.5 18q42 0 73.5 -14.5t62.5 -44.5h3l10 47h91v-685h-115v161l4 81q-27 -26 -62 -43t-73 -17q-93 0 -147.5 67.5t-54.5 189.5zM162 246q0 -80 28.5 -121.5t82.5 -41.5q55 0 103 55v229q-26 23 -50.5 32t-49.5 9q-48 0 -81 -42
t-33 -120z" />
    <glyph glyph-name="r" unicode="r" horiz-adv-x="373" 
d="M73 491h95l8 -87h4q26 48 63 73.5t76 25.5q35 0 56 -10l-20 -100q-13 4 -24 6t-27 2q-29 0 -61 -22.5t-55 -78.5v-300h-115v491z" />
    <glyph glyph-name="s" unicode="s" horiz-adv-x="431" 
d="M78 130q33 -26 65.5 -40.5t70.5 -14.5q40 0 59 16.5t19 42.5q0 15 -9 26.5t-24 20.5t-34 16.5t-38 15.5q-24 9 -49 21t-44.5 29t-32 39.5t-12.5 53.5q0 65 48 106t131 41q51 0 92 -18t71 -41l-53 -70q-26 19 -52.5 30.5t-55.5 11.5q-37 0 -54.5 -15.5t-17.5 -38.5
q0 -14 8.5 -24.5t22.5 -19t32.5 -15.5t38.5 -14q25 -9 50 -20.5t45.5 -28.5t33 -41.5t12.5 -58.5q0 -32 -12.5 -59.5t-36.5 -48t-60 -32.5t-82 -12q-51 0 -100.5 19.5t-85.5 48.5z" />
    <glyph glyph-name="t" unicode="t" horiz-adv-x="361" 
d="M90 400h-70v86l76 5l14 134h96v-134h125v-91h-125v-234q0 -86 69 -86q13 0 26.5 3t24.5 8l20 -85q-20 -7 -45.5 -12.5t-54.5 -5.5q-43 0 -72.5 13t-48 36.5t-27 56t-8.5 72.5v234z" />
    <glyph glyph-name="u" unicode="u" horiz-adv-x="556" 
d="M68 491h115v-293q0 -61 18 -86t58 -25q32 0 56.5 16t52.5 52v336h115v-491h-94l-9 72h-3q-32 -38 -69.5 -61t-88.5 -23q-79 0 -115 50.5t-36 144.5v308z" />
    <glyph glyph-name="v" unicode="v" horiz-adv-x="495" 
d="M12 491h117l78 -255q10 -36 20.5 -73t20.5 -75h4q11 38 21 75t21 73l78 255h111l-167 -491h-133z" />
    <glyph glyph-name="w" unicode="w" horiz-adv-x="748" 
d="M24 491h116l59 -255q8 -35 13.5 -70t12.5 -71h4q7 36 14.5 71t16.5 70l64 255h105l65 -255q9 -35 17 -70t16 -71h4q7 36 13 71t13 70l59 255h108l-125 -491h-137l-57 229q-8 35 -15 69.5t-15 73.5h-4q-7 -39 -14 -74t-15 -70l-56 -228h-132z" />
    <glyph glyph-name="x" unicode="x" horiz-adv-x="481" 
d="M170 256l-146 235h124l55 -93q11 -20 22.5 -41.5t22.5 -41.5h4q9 20 19 41.5t19 41.5l47 93h119l-145 -248l156 -243h-124l-60 97q-12 22 -24.5 44t-25.5 43h-4q-11 -21 -21.5 -42.5t-21.5 -44.5l-52 -97h-120z" />
    <glyph glyph-name="y" unicode="y" horiz-adv-x="495" 
d="M63 -102q7 -2 16.5 -4.5t18.5 -2.5q39 0 62.5 23.5t35.5 60.5l9 31l-193 485h117l85 -241q11 -32 21.5 -67.5t21.5 -70.5h4q9 34 18.5 69.5t18.5 68.5l74 241h111l-178 -513q-15 -42 -33 -75t-41.5 -56.5t-54 -36t-70.5 -12.5q-20 0 -35 2.5t-29 7.5l21 90v0z" />
    <glyph glyph-name="z" unicode="z" horiz-adv-x="443" 
d="M34 62l232 338h-206v91h350v-61l-231 -338h239v-92h-384v62z" />
    <glyph glyph-name="braceleft" unicode="{" horiz-adv-x="324" 
d="M109 -14q0 27 1.5 49.5t3 43.5t3 42.5t1.5 45.5q0 14 -4 27.5t-14 24t-26.5 17.5t-41.5 7v70q25 0 41.5 7t26.5 17.5t14 23.5t4 27q0 47 -4.5 88.5t-4.5 93.5q0 79 29.5 108.5t92.5 29.5h55v-64h-24q-35 0 -47.5 -17t-12.5 -62q0 -42 2.5 -84.5t2.5 -87.5q0 -54 -16 -79
t-51 -34v-4q35 -9 51 -34.5t16 -78.5q0 -48 -2.5 -88.5t-2.5 -83.5q0 -45 12.5 -62.5t47.5 -17.5h24v-63h-55q-31 0 -54 6.5t-38 22.5t-22.5 42.5t-7.5 66.5z" />
    <glyph glyph-name="bar" unicode="|" horiz-adv-x="255" 
d="M89 750h77v-1000h-77v1000z" />
    <glyph glyph-name="braceright" unicode="}" horiz-adv-x="324" 
d="M61 -89q36 0 48.5 17.5t12.5 62.5q0 43 -2.5 83.5t-2.5 88.5q0 53 16 78.5t51 34.5v4q-35 9 -51 34t-16 79q0 45 2.5 87.5t2.5 84.5q0 45 -12.5 62t-48.5 17h-23v64h54q31 0 54.5 -7t38.5 -23t22.5 -42.5t7.5 -65.5q0 -52 -4.5 -93.5t-4.5 -88.5q0 -14 4 -27t14 -23.5
t26.5 -17.5t41.5 -7v-70q-25 0 -41.5 -7t-26.5 -17.5t-14 -24t-4 -27.5q0 -24 1.5 -45.5t3 -42.5t3 -43.5t1.5 -49.5q0 -40 -7.5 -66.5t-22.5 -42.5t-38.5 -22.5t-54.5 -6.5h-54v63h23z" />
    <glyph glyph-name="asciitilde" unicode="~" horiz-adv-x="513" 
d="M32 315q32 52 67.5 74.5t70.5 22.5q30 0 53.5 -12.5t43.5 -27.5t38.5 -27.5t39.5 -12.5q42 0 74 59l61 -47q-32 -51 -67 -73.5t-70 -22.5q-30 0 -53.5 12.5t-43.5 27.5t-38.5 27.5t-39.5 12.5q-42 0 -74 -59z" />
    <glyph glyph-name="uni00A0" unicode="&#xa0;" horiz-adv-x="205" 
 />
    <glyph glyph-name="exclamdown" unicode="&#xa1;" horiz-adv-x="315" 
d="M212 -65l4 -114h-116l3 114l16 341h77zM232 426q0 -35 -21 -57t-53 -22t-53.5 22t-21.5 57q0 33 21.5 55t53.5 22t53 -22t21 -55z" />
    <glyph glyph-name="cent" unicode="&#xa2;" horiz-adv-x="513" 
d="M269 455q-46 -15 -71 -53t-25 -94t25 -94t71 -52v293zM471 123q-29 -26 -64.5 -41.5t-71.5 -20.5v-98h-66v99q-94 12 -151 75t-57 171q0 52 16 94.5t43.5 73.5t65.5 50.5t83 26.5v101h66v-98q42 -2 73.5 -18t54.5 -39l-54 -71q-35 31 -74 35v-308q26 2 48 14t40 27z" />
    <glyph glyph-name="sterling" unicode="&#xa3;" horiz-adv-x="513" 
d="M476 98v-98h-425v71q48 24 77 67.5t29 98.5q0 11 -1 20.5t-3 20.5h-100v69l67 5h12q-8 26 -14.5 51.5t-6.5 50.5q0 45 14.5 81t41 61t63.5 38.5t81 13.5q55 0 94.5 -21t69.5 -57l-64 -63q-19 22 -40 34.5t-50 12.5q-47 0 -73 -27.5t-26 -78.5q0 -25 5 -48.5t12 -47.5h154
v-74h-137q3 -21 3 -42q0 -45 -13 -75t-40 -59v-4h270z" />
    <glyph glyph-name="currency" unicode="&#xa4;" horiz-adv-x="513" 
d="M23 153l62 63q-17 23 -26 51.5t-9 61.5q0 34 9 62.5t26 51.5l-62 63l59 60l68 -70q48 31 106 31t106 -31l69 70l59 -60l-63 -63q17 -23 26 -51.5t9 -62.5q0 -33 -9 -61.5t-26 -51.5l63 -63l-59 -60l-69 70q-23 -16 -50.5 -23.5t-55.5 -7.5t-55 7.5t-50 23.5l-69 -70z
M154 329q0 -52 30 -83.5t72 -31.5q43 0 72.5 31.5t29.5 83.5q0 53 -29.5 84.5t-72.5 31.5q-42 0 -72 -31.5t-30 -84.5z" />
    <glyph glyph-name="yen" unicode="&#xa5;" horiz-adv-x="513" 
d="M137 636l64 -151q14 -33 27 -66t28 -67h4q14 34 27.5 67t27.5 66l64 151h116l-155 -306h132v-59h-158v-59h158v-60h-158v-152h-116v152h-157v60h157v59h-157v59h131l-154 306h119z" />
    <glyph glyph-name="brokenbar" unicode="&#xa6;" horiz-adv-x="255" 
d="M89 750h77v-448h-77v448zM166 209v-459h-77v459h77z" />
    <glyph glyph-name="section" unicode="&#xa7;" horiz-adv-x="513" 
d="M140 342q0 -28 18 -46.5t45.5 -33.5t60.5 -28.5t63 -30.5q23 12 34.5 29t11.5 43q0 28 -17.5 47.5t-45 34.5t-60.5 28t-63 30q-23 -14 -35 -31t-12 -42zM372 553q-23 20 -50.5 33.5t-57.5 13.5q-35 0 -50.5 -14t-15.5 -36q0 -23 20.5 -38.5t50.5 -30t66 -30t66 -37.5
t50.5 -53.5t20.5 -76.5q0 -46 -22 -77t-61 -54q12 -16 19 -35.5t7 -44.5q0 -32 -12 -58.5t-35 -46.5t-56 -31t-74 -11q-54 0 -103 20t-81 58l68 60q25 -25 53 -38.5t63 -13.5t53.5 16t18.5 40t-20 40t-50 30t-64.5 29t-64.5 36.5t-50 52.5t-20 78q0 41 22.5 74t60.5 55
q-30 33 -30 82q0 30 10.5 56t31.5 45t51.5 30t70.5 11q53 0 95.5 -19t72.5 -42z" />
    <glyph glyph-name="dieresis" unicode="&#xa8;" horiz-adv-x="549" 
d="M181 579q-26 0 -42.5 17t-16.5 43q0 25 16.5 42t42.5 17t43 -17t17 -42q0 -26 -17 -43t-43 -17zM367 579q-26 0 -43 17t-17 43q0 25 17 42t43 17t42.5 -17t16.5 -42q0 -26 -16.5 -43t-42.5 -17z" />
    <glyph glyph-name="copyright" unicode="&#xa9;" horiz-adv-x="747" 
d="M47 324q0 77 26.5 138t71 104t104 65.5t125.5 22.5t125 -22.5t103.5 -65.5t71 -104t26.5 -138t-26.5 -138.5t-71 -105t-103.5 -67t-125 -23.5t-125.5 23.5t-104 67t-71 105t-26.5 138.5zM105 324q0 -63 21 -115t57.5 -89t85.5 -57.5t105 -20.5t105 20.5t85 57.5t57 89
t21 115t-21 114.5t-57 88t-85 56.5t-105 20t-105 -20t-85.5 -56.5t-57.5 -88t-21 -114.5zM196 323q0 44 15.5 79.5t42 60t60.5 38t71 13.5q45 0 75 -17t54 -41l-45 -50q-19 18 -37 27.5t-41 9.5q-51 0 -80 -34t-29 -86q0 -58 28.5 -92t76.5 -34q29 0 50 11t41 28l39 -56
q-28 -23 -59.5 -38.5t-73.5 -15.5q-40 0 -74.5 13.5t-59.5 39t-39.5 62t-14.5 82.5z" />
    <glyph glyph-name="ordfeminine" unicode="&#xaa;" horiz-adv-x="352" 
d="M133 252q-46 0 -73 27.5t-27 69.5q0 53 45.5 81.5t147.5 37.5q-2 27 -14 43t-42 16q-23 0 -47.5 -9.5t-47.5 -22.5l-30 55q29 18 64.5 31t74.5 13q125 0 125 -142v-192h-67l-8 35h-4q-20 -18 -44 -30.5t-53 -12.5zM160 316q17 0 33 8.5t33 24.5v70q-63 -7 -87.5 -23.5
t-24.5 -39.5q0 -40 46 -40z" />
    <glyph glyph-name="guillemotleft" unicode="&#xab;" horiz-adv-x="456" 
d="M47 210v84l135 149l46 -37l-115 -154l115 -155l-46 -36zM221 210v84l135 149l46 -37l-115 -154l115 -155l-46 -36z" />
    <glyph glyph-name="logicalnot" unicode="&#xac;" horiz-adv-x="513" 
d="M34 372h445v-273h-87v189h-358v84z" />
    <glyph glyph-name="uni00AD" unicode="&#xad;" horiz-adv-x="322" 
d="M42 294h238v-84h-238v84z" />
    <glyph glyph-name="registered" unicode="&#xae;" horiz-adv-x="443" 
d="M221 315q-40 0 -75 14.5t-61.5 41t-41.5 63t-15 80.5t15 81t41.5 63.5t61.5 41t75 14.5t75 -14.5t61.5 -41t41.5 -63.5t15 -81t-15 -80.5t-41.5 -63t-61.5 -41t-75 -14.5zM221 358q31 0 58 11.5t46.5 32t30.5 49t11 63.5t-11 64t-30.5 50t-46.5 32.5t-58 11.5
q-32 0 -58.5 -11.5t-46 -32.5t-30.5 -50t-11 -64t11 -63.5t30.5 -49t46 -32t58.5 -11.5zM144 616h83q33 0 56.5 -15t23.5 -50q0 -17 -9.5 -32t-27.5 -23l44 -79h-53l-33 65h-34v-65h-50v199zM217 518q17 0 27 8t10 22q0 13 -8.5 21.5t-27.5 8.5h-24v-60h23z" />
    <glyph glyph-name="macron" unicode="&#xaf;" horiz-adv-x="549" 
d="M144 672h260v-76h-260v76z" />
    <glyph glyph-name="degree" unicode="&#xb0;" horiz-adv-x="348" 
d="M175 413q-28 0 -52.5 10t-43 28t-29 43t-10.5 55t10.5 55t29 43t43 28t52.5 10t52.5 -10t43 -28t29 -43t10.5 -55t-10.5 -55t-29 -43t-43 -28t-52.5 -10zM175 472q32 0 51.5 21.5t19.5 55.5q0 35 -19.5 56.5t-51.5 21.5t-51.5 -21.5t-19.5 -56.5q0 -34 19.5 -55.5
t51.5 -21.5z" />
    <glyph glyph-name="plusminus" unicode="&#xb1;" horiz-adv-x="513" 
d="M213 299h-179v83h179v179h87v-179h179v-83h-179v-156h-87v156zM34 83h445v-83h-445v83z" />
    <glyph glyph-name="two.sups" unicode="&#xb2;" horiz-adv-x="372" 
d="M48 488q84 72 131 121t47 90q0 33 -17.5 52t-48.5 19q-22 0 -41 -14.5t-36 -37.5l-50 46q26 37 62 57.5t78 20.5q62 0 99.5 -33t37.5 -96q0 -26 -9.5 -50t-26.5 -48.5t-39.5 -49.5t-48.5 -52h141v-73h-279v48z" />
    <glyph glyph-name="three.sups" unicode="&#xb3;" horiz-adv-x="372" 
d="M85 548q36 -53 91 -53q28 0 47.5 15t19.5 43q0 29 -27.5 44.5t-79.5 15.5v51q43 0 67.5 16t24.5 44q0 23 -16 37t-43 14q-20 0 -38.5 -12t-33.5 -31l-50 44q29 32 60.5 49t75.5 17q26 0 49.5 -7.5t41.5 -21t28.5 -33.5t10.5 -45q0 -33 -16.5 -55.5t-45.5 -37.5
q32 -11 54.5 -34.5t22.5 -60.5q0 -27 -11.5 -49t-31.5 -37.5t-46.5 -24t-55.5 -8.5q-50 0 -89 21t-63 57z" />
    <glyph glyph-name="acute" unicode="&#xb4;" horiz-adv-x="549" 
d="M286 573h-86l90 146h114z" />
    <glyph glyph-name="uni00B5" unicode="&#xb5;" horiz-adv-x="562" 
d="M73 491h115v-293q0 -61 18.5 -86t58.5 -25q32 0 56 16t53 52v336h115v-491h-95l-8 72h-4q-23 -38 -54.5 -58t-69.5 -20q-24 0 -43 6t-33 26l6 -90v-136h-115v691z" />
    <glyph glyph-name="paragraph" unicode="&#xb6;" horiz-adv-x="599" 
d="M387 654h116v-734h-116v734zM295 212q-54 0 -100.5 13.5t-81 41.5t-54 70t-19.5 99q0 61 19 102.5t52.5 67t79 37t97.5 11.5h44v-442h-37z" />
    <glyph glyph-name="periodcentered" unicode="&#xb7;" horiz-adv-x="275" 
d="M63 321q0 34 21.5 56t53.5 22t53 -22t21 -56t-21 -56t-53 -22t-53.5 22t-21.5 56z" />
    <glyph glyph-name="cedilla" unicode="&#xb8;" horiz-adv-x="549" 
d="M249 3h70l-23 -49q25 -9 42 -25.5t17 -47.5q0 -24 -13 -41t-35.5 -29t-51.5 -19t-61 -9l-10 50q38 5 62 15.5t24 30.5q0 16 -14.5 27t-46.5 19z" />
    <glyph glyph-name="one.sups" unicode="&#xb9;" horiz-adv-x="372" 
d="M168 734h-86v54q37 6 59 15.5t45 26.5h69v-390h-87v294z" />
    <glyph glyph-name="ordmasculine" unicode="&#xba;" horiz-adv-x="369" 
d="M184 252q-32 0 -60 11.5t-50 33.5t-34.5 53.5t-12.5 71.5q0 41 12.5 73t34.5 54t50 33.5t60 11.5q31 0 59.5 -11.5t50.5 -33.5t34.5 -54t12.5 -73q0 -40 -12.5 -71.5t-34.5 -53.5t-50.5 -33.5t-59.5 -11.5zM184 319q35 0 53.5 28.5t18.5 74.5q0 48 -18.5 76.5t-53.5 28.5
t-53.5 -28.5t-18.5 -76.5q0 -46 18.5 -74.5t53.5 -28.5z" />
    <glyph glyph-name="guillemotright" unicode="&#xbb;" horiz-adv-x="456" 
d="M168 252l-114 154l45 37l136 -149v-84l-136 -149l-45 36zM342 252l-114 154l45 37l136 -149v-84l-136 -149l-45 36z" />
    <glyph glyph-name="onequarter" unicode="&#xbc;" horiz-adv-x="795" 
d="M142 558h-86v54q37 6 59 15.5t45 26.5h69v-390h-87v294zM183 -12l357 678h70l-356 -678h-71zM640 154v55l5 113h-4l-45 -79l-51 -89h95zM775 95h-58v-95h-77v95h-179v44l152 251h104v-236h58v-59z" />
    <glyph glyph-name="onehalf" unicode="&#xbd;" horiz-adv-x="827" 
d="M142 558h-86v54q37 6 59 15.5t45 26.5h69v-390h-87v294zM165 -12l357 678h70l-356 -678h-71zM503 48q84 72 131 121t47 90q0 33 -17.5 52t-48.5 19q-22 0 -41 -14.5t-36 -37.5l-50 46q26 37 62 57.5t78 20.5q62 0 99.5 -33t37.5 -96q0 -26 -9.5 -50t-26.5 -48.5
t-39.5 -49.5t-48.5 -52h141v-73h-279v48z" />
    <glyph glyph-name="threequarters" unicode="&#xbe;" horiz-adv-x="807" 
d="M84 372q36 -53 91 -53q28 0 47.5 15t19.5 43q0 29 -27.5 44.5t-79.5 15.5v51q43 0 67.5 16t24.5 44q0 23 -16 37t-43 14q-20 0 -38.5 -12t-33.5 -31l-50 44q29 32 60.5 49t75.5 17q26 0 49.5 -7.5t41.5 -21t28.5 -33.5t10.5 -45q0 -33 -16.5 -55.5t-45.5 -37.5
q32 -11 54.5 -34.5t22.5 -60.5q0 -27 -11.5 -49t-31.5 -37.5t-46.5 -24t-55.5 -8.5q-50 0 -89 21t-63 57zM212 -12l357 678h70l-356 -678h-71zM652 154v55l5 113h-4l-45 -79l-51 -89h95zM787 95h-58v-95h-77v95h-179v44l152 251h104v-236h58v-59z" />
    <glyph glyph-name="questiondown" unicode="&#xbf;" horiz-adv-x="444" 
d="M288 276q5 -37 -3 -66.5t-22.5 -54.5t-33 -46.5t-35 -42t-27.5 -41t-11 -42.5q0 -35 21.5 -57.5t60.5 -22.5q30 0 55 14.5t47 37.5l65 -59q-33 -38 -77 -62.5t-98 -24.5q-41 0 -74.5 10.5t-58.5 31.5t-38.5 52t-13.5 72q0 32 11.5 57.5t28.5 48.5t36 44t34.5 44t24.5 49
t6 58h102zM310 426q0 -35 -21 -57t-53 -22t-53 22t-21 57q0 33 21 55t53 22t53 -22t21 -55z" />
    <glyph glyph-name="Agrave" unicode="&#xc0;" horiz-adv-x="555" 
d="M359 268l-23 80q-15 52 -30 107t-29 109h-4q-14 -55 -28 -109.5t-30 -106.5l-23 -80h167zM385 177h-219l-51 -177h-119l214 654h136l213 -654h-123zM128 820h126l84 -116h-93z" />
    <glyph glyph-name="Aacute" unicode="&#xc1;" horiz-adv-x="555" 
d="M359 268l-23 80q-15 52 -30 107t-29 109h-4q-14 -55 -28 -109.5t-30 -106.5l-23 -80h167zM385 177h-219l-51 -177h-119l214 654h136l213 -654h-123zM305 704h-93l84 116h126z" />
    <glyph glyph-name="Acircumflex" unicode="&#xc2;" horiz-adv-x="555" 
d="M359 268l-23 80q-15 52 -30 107t-29 109h-4q-14 -55 -28 -109.5t-30 -106.5l-23 -80h167zM385 177h-219l-51 -177h-119l214 654h136l213 -654h-123zM123 704l96 116h112l96 -116h-90l-60 64h-4l-60 -64h-90z" />
    <glyph glyph-name="Atilde" unicode="&#xc3;" horiz-adv-x="555" 
d="M359 268l-23 80q-15 52 -30 107t-29 109h-4q-14 -55 -28 -109.5t-30 -106.5l-23 -80h167zM385 177h-219l-51 -177h-119l214 654h136l213 -654h-123zM337 707q-20 0 -36.5 7.5t-31 17t-27 17t-25.5 7.5q-14 0 -24 -12t-15 -37h-61q6 58 32 90t64 32q20 0 36.5 -7.5
t31 -16.5t27 -16.5t25.5 -7.5q14 0 24 11.5t15 36.5h61q-6 -57 -32 -89.5t-64 -32.5z" />
    <glyph glyph-name="Adieresis" unicode="&#xc4;" horiz-adv-x="555" 
d="M359 268l-23 80q-15 52 -30 107t-29 109h-4q-14 -55 -28 -109.5t-30 -106.5l-23 -80h167zM385 177h-219l-51 -177h-119l214 654h136l213 -654h-123zM182 708q-26 0 -42.5 16.5t-16.5 42.5t16.5 43t42.5 17t43 -17t17 -43t-17 -42.5t-43 -16.5zM368 708q-26 0 -43 16.5
t-17 42.5t17 43t43 17t42.5 -17t16.5 -43t-16.5 -42.5t-42.5 -16.5z" />
    <glyph glyph-name="Aring" unicode="&#xc5;" horiz-adv-x="555" 
d="M359 268l-23 80q-15 52 -30 107t-29 109h-4q-14 -55 -28 -109.5t-30 -106.5l-23 -80h167zM385 177h-219l-51 -177h-119l214 654h136l213 -654h-123zM275 698q-46 0 -74.5 25t-28.5 68q0 42 28.5 67.5t74.5 25.5q45 0 74 -25.5t29 -67.5q0 -43 -29 -68t-74 -25zM275 744
q18 0 31 12t13 35q0 22 -13 34.5t-31 12.5q-19 0 -31.5 -12.5t-12.5 -34.5q0 -23 12.5 -35t31.5 -12z" />
    <glyph glyph-name="AE" unicode="&#xc6;" horiz-adv-x="831" 
d="M392 261v304h-4q-23 -51 -47 -101t-47 -98l-51 -105h149zM782 98v-98h-390v170h-193l-83 -170h-120l326 654h450v-98h-264v-167h221v-98h-221v-193h274z" />
    <glyph glyph-name="Ccedilla" unicode="&#xc7;" horiz-adv-x="573" 
d="M47 325q0 80 23.5 143.5t64.5 107.5t96 67t118 23q60 0 107.5 -25t78.5 -58l-64 -72q-26 25 -54.5 39.5t-66.5 14.5q-40 0 -74 -16.5t-58.5 -47t-38 -74.5t-13.5 -99q0 -112 49 -175.5t131 -63.5q44 0 77 17t61 48l64 -71q-40 -46 -90.5 -70.5t-113.5 -24.5
q-62 0 -116.5 22t-94.5 65t-63 106t-23 144zM315 3h70l-23 -49q25 -9 42 -25.5t17 -47.5q0 -24 -13 -41t-35.5 -29t-51.5 -19t-61 -9l-10 50q38 5 62 15.5t24 30.5q0 16 -14.5 27t-46.5 19z" />
    <glyph glyph-name="Egrave" unicode="&#xc8;" horiz-adv-x="534" 
d="M82 654h393v-98h-277v-167h235v-98h-235v-193h287v-98h-403v654zM138 820h126l84 -116h-93z" />
    <glyph glyph-name="Eacute" unicode="&#xc9;" horiz-adv-x="534" 
d="M82 654h393v-98h-277v-167h235v-98h-235v-193h287v-98h-403v654zM315 704h-93l84 116h126z" />
    <glyph glyph-name="Ecircumflex" unicode="&#xca;" horiz-adv-x="534" 
d="M82 654h393v-98h-277v-167h235v-98h-235v-193h287v-98h-403v654zM133 704l96 116h112l96 -116h-90l-60 64h-4l-60 -64h-90z" />
    <glyph glyph-name="Edieresis" unicode="&#xcb;" horiz-adv-x="534" 
d="M82 654h393v-98h-277v-167h235v-98h-235v-193h287v-98h-403v654zM192 708q-26 0 -42.5 16.5t-16.5 42.5t16.5 43t42.5 17t43 -17t17 -43t-17 -42.5t-43 -16.5zM378 708q-26 0 -43 16.5t-17 42.5t17 43t43 17t42.5 -17t16.5 -43t-16.5 -42.5t-42.5 -16.5z" />
    <glyph glyph-name="Igrave" unicode="&#xcc;" horiz-adv-x="279" 
d="M82 654h116v-654h-116v654zM-8 820h126l84 -116h-93z" />
    <glyph glyph-name="Iacute" unicode="&#xcd;" horiz-adv-x="279" 
d="M82 654h116v-654h-116v654zM169 704h-93l84 116h126z" />
    <glyph glyph-name="Icircumflex" unicode="&#xce;" horiz-adv-x="279" 
d="M82 654h116v-654h-116v654zM-13 704l96 116h112l96 -116h-90l-60 64h-4l-60 -64h-90z" />
    <glyph glyph-name="Idieresis" unicode="&#xcf;" horiz-adv-x="279" 
d="M82 654h116v-654h-116v654zM46 708q-26 0 -42.5 16.5t-16.5 42.5t16.5 43t42.5 17t43 -17t17 -43t-17 -42.5t-43 -16.5zM232 708q-26 0 -43 16.5t-17 42.5t17 43t43 17t42.5 -17t16.5 -43t-16.5 -42.5t-42.5 -16.5z" />
    <glyph glyph-name="Eth" unicode="&#xd0;" horiz-adv-x="645" 
d="M270 94q100 0 154 57.5t54 178.5q0 120 -54.5 175t-153.5 55h-50v-190h138v-59h-138v-217h50zM278 654q150 0 234.5 -81t84.5 -243q0 -81 -21.5 -143t-62 -103.5t-98.5 -62.5t-131 -21h-180v311h-76v55l76 4v284h174z" />
    <glyph glyph-name="Ntilde" unicode="&#xd1;" horiz-adv-x="653" 
d="M82 654h119l203 -368l68 -139h4q-5 51 -10 109.5t-5 113.5v284h110v-654h-119l-203 368l-68 139h-4q5 -52 10 -109t5 -112v-286h-110v654zM390 707q-20 0 -36.5 7.5t-31 17t-27 17t-25.5 7.5q-14 0 -24 -12t-15 -37h-61q6 58 32 90t64 32q20 0 36.5 -7.5t31 -16.5
t27 -16.5t25.5 -7.5q14 0 24 11.5t15 36.5h61q-6 -57 -32 -89.5t-64 -32.5z" />
    <glyph glyph-name="Ograve" unicode="&#xd2;" horiz-adv-x="671" 
d="M336 -12q-64 0 -117 23.5t-91.5 68t-59.5 107.5t-21 143q0 79 21 141.5t59.5 105.5t91.5 66t117 23t117 -23t91 -66t59 -105.5t21 -141.5q0 -80 -21 -143t-59 -107.5t-91 -68t-117 -23.5zM336 89q38 0 69.5 17t53.5 48.5t34 76t12 99.5q0 110 -46 172.5t-123 62.5
q-78 0 -124 -62.5t-46 -172.5q0 -55 12 -99.5t34.5 -76t53.5 -48.5t70 -17zM188 820h126l84 -116h-93z" />
    <glyph glyph-name="Oacute" unicode="&#xd3;" horiz-adv-x="671" 
d="M336 -12q-64 0 -117 23.5t-91.5 68t-59.5 107.5t-21 143q0 79 21 141.5t59.5 105.5t91.5 66t117 23t117 -23t91 -66t59 -105.5t21 -141.5q0 -80 -21 -143t-59 -107.5t-91 -68t-117 -23.5zM336 89q38 0 69.5 17t53.5 48.5t34 76t12 99.5q0 110 -46 172.5t-123 62.5
q-78 0 -124 -62.5t-46 -172.5q0 -55 12 -99.5t34.5 -76t53.5 -48.5t70 -17zM365 704h-93l84 116h126z" />
    <glyph glyph-name="Ocircumflex" unicode="&#xd4;" horiz-adv-x="671" 
d="M336 -12q-64 0 -117 23.5t-91.5 68t-59.5 107.5t-21 143q0 79 21 141.5t59.5 105.5t91.5 66t117 23t117 -23t91 -66t59 -105.5t21 -141.5q0 -80 -21 -143t-59 -107.5t-91 -68t-117 -23.5zM336 89q38 0 69.5 17t53.5 48.5t34 76t12 99.5q0 110 -46 172.5t-123 62.5
q-78 0 -124 -62.5t-46 -172.5q0 -55 12 -99.5t34.5 -76t53.5 -48.5t70 -17zM183 704l96 116h112l96 -116h-90l-60 64h-4l-60 -64h-90z" />
    <glyph glyph-name="Otilde" unicode="&#xd5;" horiz-adv-x="671" 
d="M336 -12q-64 0 -117 23.5t-91.5 68t-59.5 107.5t-21 143q0 79 21 141.5t59.5 105.5t91.5 66t117 23t117 -23t91 -66t59 -105.5t21 -141.5q0 -80 -21 -143t-59 -107.5t-91 -68t-117 -23.5zM336 89q38 0 69.5 17t53.5 48.5t34 76t12 99.5q0 110 -46 172.5t-123 62.5
q-78 0 -124 -62.5t-46 -172.5q0 -55 12 -99.5t34.5 -76t53.5 -48.5t70 -17zM397 707q-20 0 -36.5 7.5t-31 17t-27 17t-25.5 7.5q-14 0 -24 -12t-15 -37h-61q6 58 32 90t64 32q20 0 36.5 -7.5t31 -16.5t27 -16.5t25.5 -7.5q14 0 24 11.5t15 36.5h61q-6 -57 -32 -89.5
t-64 -32.5z" />
    <glyph glyph-name="Odieresis" unicode="&#xd6;" horiz-adv-x="671" 
d="M336 -12q-64 0 -117 23.5t-91.5 68t-59.5 107.5t-21 143q0 79 21 141.5t59.5 105.5t91.5 66t117 23t117 -23t91 -66t59 -105.5t21 -141.5q0 -80 -21 -143t-59 -107.5t-91 -68t-117 -23.5zM336 89q38 0 69.5 17t53.5 48.5t34 76t12 99.5q0 110 -46 172.5t-123 62.5
q-78 0 -124 -62.5t-46 -172.5q0 -55 12 -99.5t34.5 -76t53.5 -48.5t70 -17zM242 708q-26 0 -42.5 16.5t-16.5 42.5t16.5 43t42.5 17t43 -17t17 -43t-17 -42.5t-43 -16.5zM428 708q-26 0 -43 16.5t-17 42.5t17 43t43 17t42.5 -17t16.5 -43t-16.5 -42.5t-42.5 -16.5z" />
    <glyph glyph-name="multiply" unicode="&#xd7;" horiz-adv-x="513" 
d="M49 179l148 150l-148 151l59 60l148 -152l149 152l59 -60l-149 -151l149 -150l-59 -60l-149 151l-148 -151z" />
    <glyph glyph-name="Oslash" unicode="&#xd8;" horiz-adv-x="671" 
d="M235 129q42 -40 101 -40q38 0 69.5 17t53.5 48.5t34 76t12 99.5q0 67 -19 119zM443 520q-43 45 -107 45q-78 0 -124 -62.5t-46 -172.5q0 -76 23 -133zM565 549q29 -42 44 -96.5t15 -122.5q0 -80 -21 -143t-59 -107.5t-91 -68t-117 -23.5q-98 0 -169 54l-62 -78l-62 48
l69 87q-31 44 -48 101.5t-17 129.5q0 79 21 141.5t59.5 105.5t91.5 66t117 23q104 0 176 -58l65 82l61 -48z" />
    <glyph glyph-name="Ugrave" unicode="&#xd9;" horiz-adv-x="652" 
d="M78 654h116v-376q0 -53 9.5 -89.5t27 -58.5t42 -31.5t54.5 -9.5t55 9.5t42.5 31.5t27.5 58.5t10 89.5v376h112v-367q0 -81 -17.5 -137.5t-49.5 -92.5t-77.5 -52.5t-102.5 -16.5t-103 16.5t-78.5 52.5t-50 92.5t-17.5 137.5v367zM179 820h126l84 -116h-93z" />
    <glyph glyph-name="Uacute" unicode="&#xda;" horiz-adv-x="652" 
d="M78 654h116v-376q0 -53 9.5 -89.5t27 -58.5t42 -31.5t54.5 -9.5t55 9.5t42.5 31.5t27.5 58.5t10 89.5v376h112v-367q0 -81 -17.5 -137.5t-49.5 -92.5t-77.5 -52.5t-102.5 -16.5t-103 16.5t-78.5 52.5t-50 92.5t-17.5 137.5v367zM356 704h-93l84 116h126z" />
    <glyph glyph-name="Ucircumflex" unicode="&#xdb;" horiz-adv-x="652" 
d="M78 654h116v-376q0 -53 9.5 -89.5t27 -58.5t42 -31.5t54.5 -9.5t55 9.5t42.5 31.5t27.5 58.5t10 89.5v376h112v-367q0 -81 -17.5 -137.5t-49.5 -92.5t-77.5 -52.5t-102.5 -16.5t-103 16.5t-78.5 52.5t-50 92.5t-17.5 137.5v367zM174 704l96 116h112l96 -116h-90l-60 64
h-4l-60 -64h-90z" />
    <glyph glyph-name="Udieresis" unicode="&#xdc;" horiz-adv-x="652" 
d="M78 654h116v-376q0 -53 9.5 -89.5t27 -58.5t42 -31.5t54.5 -9.5t55 9.5t42.5 31.5t27.5 58.5t10 89.5v376h112v-367q0 -81 -17.5 -137.5t-49.5 -92.5t-77.5 -52.5t-102.5 -16.5t-103 16.5t-78.5 52.5t-50 92.5t-17.5 137.5v367zM233 708q-26 0 -42.5 16.5t-16.5 42.5
t16.5 43t42.5 17t43 -17t17 -43t-17 -42.5t-43 -16.5zM419 708q-26 0 -43 16.5t-17 42.5t17 43t43 17t42.5 -17t16.5 -43t-16.5 -42.5t-42.5 -16.5z" />
    <glyph glyph-name="Yacute" unicode="&#xdd;" horiz-adv-x="498" 
d="M191 243l-197 411h124l71 -167q14 -37 28.5 -71.5t29.5 -72.5h4q16 38 31.5 72.5t29.5 71.5l71 167h121l-197 -411v-243h-116v243zM279 704h-93l84 116h126z" />
    <glyph glyph-name="Thorn" unicode="&#xde;" horiz-adv-x="602" 
d="M84 654h116v-104h104q54 0 99.5 -10.5t78.5 -34t52 -62t19 -95.5q0 -55 -19 -95t-52.5 -66t-79 -38.5t-98.5 -12.5h-104v-136h-116v654zM294 229q74 0 109 29.5t35 89.5q0 61 -36 85t-108 24h-94v-228h94z" />
    <glyph glyph-name="germandbls" unicode="&#xdf;" horiz-adv-x="604" 
d="M73 501q0 48 14 87.5t41 68t67.5 44t94.5 15.5q45 0 79.5 -13t58 -34.5t35 -49.5t11.5 -59q0 -37 -13 -62.5t-29 -46t-29 -39.5t-13 -41q0 -20 14 -34t34.5 -26t45 -24.5t45 -31t34.5 -45.5t14 -66q0 -33 -11.5 -61.5t-33.5 -49.5t-54.5 -33t-73.5 -12q-42 0 -77 12.5
t-69 34.5l42 79q51 -39 101 -39q33 0 51 19t18 45q0 24 -14 40t-34.5 29t-44.5 25t-44.5 28.5t-34.5 39t-14 56.5q0 31 12.5 53.5t27 43t27 42t12.5 51.5q0 34 -18.5 56t-54.5 22q-50 0 -76.5 -36t-26.5 -105v-484h-114v501z" />
    <glyph glyph-name="agrave" unicode="&#xe0;" horiz-adv-x="523" 
d="M52 132q0 79 69 122t220 60q0 19 -5 36.5t-15.5 31t-27 21t-41.5 7.5q-37 0 -71.5 -14t-66.5 -34l-42 77q41 26 91.5 45t109.5 19q93 0 138 -54.5t45 -157.5v-291h-94l-9 54h-3q-33 -28 -70.5 -47t-81.5 -19q-65 0 -105.5 39.5t-40.5 104.5zM164 141q0 -33 19.5 -48
t50.5 -15q30 0 55 14t52 40v110q-50 -6 -84 -16t-54.5 -22.5t-29.5 -28.5t-9 -34zM145 719h114l90 -146h-86z" />
    <glyph glyph-name="aacute" unicode="&#xe1;" horiz-adv-x="523" 
d="M52 132q0 79 69 122t220 60q0 19 -5 36.5t-15.5 31t-27 21t-41.5 7.5q-37 0 -71.5 -14t-66.5 -34l-42 77q41 26 91.5 45t109.5 19q93 0 138 -54.5t45 -157.5v-291h-94l-9 54h-3q-33 -28 -70.5 -47t-81.5 -19q-65 0 -105.5 39.5t-40.5 104.5zM164 141q0 -33 19.5 -48
t50.5 -15q30 0 55 14t52 40v110q-50 -6 -84 -16t-54.5 -22.5t-29.5 -28.5t-9 -34zM287 573h-86l90 146h114z" />
    <glyph glyph-name="acircumflex" unicode="&#xe2;" horiz-adv-x="523" 
d="M52 132q0 79 69 122t220 60q0 19 -5 36.5t-15.5 31t-27 21t-41.5 7.5q-37 0 -71.5 -14t-66.5 -34l-42 77q41 26 91.5 45t109.5 19q93 0 138 -54.5t45 -157.5v-291h-94l-9 54h-3q-33 -28 -70.5 -47t-81.5 -19q-65 0 -105.5 39.5t-40.5 104.5zM164 141q0 -33 19.5 -48
t50.5 -15q30 0 55 14t52 40v110q-50 -6 -84 -16t-54.5 -22.5t-29.5 -28.5t-9 -34zM229 719h92l96 -146h-80l-60 85h-4l-60 -85h-80z" />
    <glyph glyph-name="atilde" unicode="&#xe3;" horiz-adv-x="523" 
d="M52 132q0 79 69 122t220 60q0 19 -5 36.5t-15.5 31t-27 21t-41.5 7.5q-37 0 -71.5 -14t-66.5 -34l-42 77q41 26 91.5 45t109.5 19q93 0 138 -54.5t45 -157.5v-291h-94l-9 54h-3q-33 -28 -70.5 -47t-81.5 -19q-65 0 -105.5 39.5t-40.5 104.5zM164 141q0 -33 19.5 -48
t50.5 -15q30 0 55 14t52 40v110q-50 -6 -84 -16t-54.5 -22.5t-29.5 -28.5t-9 -34zM122 577q6 57 30.5 89t62.5 32q19 0 35.5 -7.5t30.5 -16.5t26 -16.5t24 -7.5q26 0 36 48h61q-6 -57 -30.5 -89t-62.5 -32q-20 0 -36 7.5t-29.5 16.5t-26 16.5t-24.5 7.5q-26 0 -36 -48h-61v0
z" />
    <glyph glyph-name="adieresis" unicode="&#xe4;" horiz-adv-x="523" 
d="M52 132q0 79 69 122t220 60q0 19 -5 36.5t-15.5 31t-27 21t-41.5 7.5q-37 0 -71.5 -14t-66.5 -34l-42 77q41 26 91.5 45t109.5 19q93 0 138 -54.5t45 -157.5v-291h-94l-9 54h-3q-33 -28 -70.5 -47t-81.5 -19q-65 0 -105.5 39.5t-40.5 104.5zM164 141q0 -33 19.5 -48
t50.5 -15q30 0 55 14t52 40v110q-50 -6 -84 -16t-54.5 -22.5t-29.5 -28.5t-9 -34zM182 579q-26 0 -42.5 17t-16.5 43q0 25 16.5 42t42.5 17t43 -17t17 -42q0 -26 -17 -43t-43 -17zM368 579q-26 0 -43 17t-17 43q0 25 17 42t43 17t42.5 -17t16.5 -42q0 -26 -16.5 -43
t-42.5 -17z" />
    <glyph glyph-name="aring" unicode="&#xe5;" horiz-adv-x="523" 
d="M52 132q0 79 69 122t220 60q0 19 -5 36.5t-15.5 31t-27 21t-41.5 7.5q-37 0 -71.5 -14t-66.5 -34l-42 77q41 26 91.5 45t109.5 19q93 0 138 -54.5t45 -157.5v-291h-94l-9 54h-3q-33 -28 -70.5 -47t-81.5 -19q-65 0 -105.5 39.5t-40.5 104.5zM164 141q0 -33 19.5 -48
t50.5 -15q30 0 55 14t52 40v110q-50 -6 -84 -16t-54.5 -22.5t-29.5 -28.5t-9 -34zM275 545q-46 0 -74.5 26.5t-28.5 70.5q0 45 28.5 71.5t74.5 26.5t74.5 -26.5t28.5 -71.5q0 -44 -28.5 -70.5t-74.5 -26.5zM275 591q19 0 31.5 14t12.5 37t-12.5 37.5t-31.5 14.5t-31.5 -14.5
t-12.5 -37.5t12.5 -37t31.5 -14z" />
    <glyph glyph-name="ae" unicode="&#xe6;" horiz-adv-x="785" 
d="M164 141q0 -33 19.5 -48t50.5 -15q29 0 61 15.5t59 42.5q-8 17 -11.5 39t-4.5 44l-2 23q-94 -13 -133 -38t-39 -63zM72 439q41 26 90 45t103 19q51 0 85.5 -23.5t53.5 -65.5q30 42 67.5 65.5t85.5 23.5q47 0 82.5 -17.5t59.5 -48.5t36.5 -74.5t12.5 -94.5q0 -34 -5 -54
h-300q6 -64 43.5 -99t91.5 -35q32 0 58 10.5t53 27.5l41 -77q-35 -23 -77.5 -38t-89.5 -15q-58 0 -100 24.5t-71 59.5q-51 -44 -98.5 -64t-95.5 -20q-65 0 -105.5 39.5t-40.5 104.5q0 79 68.5 122.5t217.5 59.5q-1 19 -5.5 36.5t-14.5 31t-26.5 21t-41.5 7.5
q-35 0 -69.5 -14t-66.5 -34zM649 287q0 60 -24 93.5t-72 33.5q-42 0 -72.5 -33t-37.5 -94h206z" />
    <glyph glyph-name="ccedilla" unicode="&#xe7;" horiz-adv-x="462" 
d="M41 245q0 61 20 109t54 81t78.5 50.5t93.5 17.5q48 0 83.5 -16.5t60.5 -40.5l-55 -73q-20 17 -40 26.5t-43 9.5q-60 0 -97 -44.5t-37 -119.5q0 -74 36.5 -118.5t94.5 -44.5q30 0 55.5 12.5t45.5 29.5l48 -73q-35 -31 -77 -47t-84 -16q-50 0 -93.5 17t-75.5 50t-50 81
t-18 109zM249 3h70l-23 -49q25 -9 42 -25.5t17 -47.5q0 -24 -13 -41t-35.5 -29t-51.5 -19t-61 -9l-10 50q38 5 62 15.5t24 30.5q0 16 -14.5 27t-46.5 19z" />
    <glyph glyph-name="egrave" unicode="&#xe8;" horiz-adv-x="507" 
d="M41 245q0 60 19 108t50.5 81t72.5 51t84 18q50 0 88 -17t63.5 -48t38.5 -74t13 -94q0 -34 -5 -54h-312q8 -67 46.5 -103t98.5 -36q32 0 59.5 9.5t54.5 26.5l39 -72q-35 -23 -78 -38t-90 -15q-51 0 -95 17.5t-77 50.5t-51.5 80.5t-18.5 108.5zM370 289q0 59 -24.5 92
t-75.5 33q-44 0 -77 -31.5t-41 -93.5h218zM137 719h114l90 -146h-86z" />
    <glyph glyph-name="eacute" unicode="&#xe9;" horiz-adv-x="507" 
d="M41 245q0 60 19 108t50.5 81t72.5 51t84 18q50 0 88 -17t63.5 -48t38.5 -74t13 -94q0 -34 -5 -54h-312q8 -67 46.5 -103t98.5 -36q32 0 59.5 9.5t54.5 26.5l39 -72q-35 -23 -78 -38t-90 -15q-51 0 -95 17.5t-77 50.5t-51.5 80.5t-18.5 108.5zM370 289q0 59 -24.5 92
t-75.5 33q-44 0 -77 -31.5t-41 -93.5h218zM279 573h-86l90 146h114z" />
    <glyph glyph-name="ecircumflex" unicode="&#xea;" horiz-adv-x="507" 
d="M41 245q0 60 19 108t50.5 81t72.5 51t84 18q50 0 88 -17t63.5 -48t38.5 -74t13 -94q0 -34 -5 -54h-312q8 -67 46.5 -103t98.5 -36q32 0 59.5 9.5t54.5 26.5l39 -72q-35 -23 -78 -38t-90 -15q-51 0 -95 17.5t-77 50.5t-51.5 80.5t-18.5 108.5zM370 289q0 59 -24.5 92
t-75.5 33q-44 0 -77 -31.5t-41 -93.5h218zM221 719h92l96 -146h-80l-60 85h-4l-60 -85h-80z" />
    <glyph glyph-name="edieresis" unicode="&#xeb;" horiz-adv-x="507" 
d="M41 245q0 60 19 108t50.5 81t72.5 51t84 18q50 0 88 -17t63.5 -48t38.5 -74t13 -94q0 -34 -5 -54h-312q8 -67 46.5 -103t98.5 -36q32 0 59.5 9.5t54.5 26.5l39 -72q-35 -23 -78 -38t-90 -15q-51 0 -95 17.5t-77 50.5t-51.5 80.5t-18.5 108.5zM370 289q0 59 -24.5 92
t-75.5 33q-44 0 -77 -31.5t-41 -93.5h218zM174 579q-26 0 -42.5 17t-16.5 43q0 25 16.5 42t42.5 17t43 -17t17 -42q0 -26 -17 -43t-43 -17zM360 579q-26 0 -43 17t-17 43q0 25 17 42t43 17t42.5 -17t16.5 -42q0 -26 -16.5 -43t-42.5 -17z" />
    <glyph glyph-name="igrave" unicode="&#xec;" horiz-adv-x="262" 
d="M73 491h115v-491h-115v491zM1 719h114l90 -146h-86z" />
    <glyph glyph-name="iacute" unicode="&#xed;" horiz-adv-x="262" 
d="M73 491h115v-491h-115v491zM143 573h-86l90 146h114z" />
    <glyph glyph-name="icircumflex" unicode="&#xee;" horiz-adv-x="262" 
d="M73 491h115v-491h-115v491zM85 719h92l96 -146h-80l-60 85h-4l-60 -85h-80z" />
    <glyph glyph-name="idieresis" unicode="&#xef;" horiz-adv-x="262" 
d="M73 491h115v-491h-115v491zM38 579q-26 0 -42.5 17t-16.5 43q0 25 16.5 42t42.5 17t43 -17t17 -42q0 -26 -17 -43t-43 -17zM224 579q-26 0 -43 17t-17 43q0 25 17 42t43 17t42.5 -17t16.5 -42q0 -26 -16.5 -43t-42.5 -17z" />
    <glyph glyph-name="eth" unicode="&#xf0;" horiz-adv-x="552" 
d="M274 82q55 0 85 45.5t30 128.5q0 13 -0.5 25.5t-1.5 24.5q-27 34 -55.5 46t-58.5 12q-55 0 -87 -37t-32 -102q0 -33 9.5 -59.5t26 -45t38.5 -28.5t46 -10zM363 603q59 -60 97 -143t38 -198q0 -60 -16 -110.5t-45.5 -87t-71.5 -56.5t-94 -20q-45 0 -85 16.5t-71 47
t-49 74.5t-18 99q0 52 16.5 94t44.5 71.5t65 45t78 15.5q34 0 65.5 -12.5t54.5 -41.5q-14 51 -38 90t-58 72l-142 -72l-31 53l122 62q-23 17 -48 32t-53 30l51 71q36 -19 71 -40.5t67 -47.5l143 73l31 -54z" />
    <glyph glyph-name="ntilde" unicode="&#xf1;" horiz-adv-x="560" 
d="M73 491h95l8 -66h4q33 32 71.5 55t89.5 23q79 0 115 -50.5t36 -144.5v-308h-115v293q0 61 -18 86t-59 25q-32 0 -56.5 -15.5t-55.5 -45.5v-343h-115v491zM147 577q6 57 30.5 89t62.5 32q19 0 35.5 -7.5t30.5 -16.5t26 -16.5t24 -7.5q26 0 36 48h61q-6 -57 -30.5 -89
t-62.5 -32q-20 0 -36 7.5t-29.5 16.5t-26 16.5t-24.5 7.5q-26 0 -36 -48h-61v0z" />
    <glyph glyph-name="ograve" unicode="&#xf2;" horiz-adv-x="549" 
d="M41 245q0 61 19 109t51.5 81t74.5 50.5t88 17.5t88.5 -17.5t74.5 -50.5t51.5 -81t19.5 -109t-19.5 -109t-51.5 -81t-74.5 -50t-88.5 -17t-88 17t-74.5 50t-51.5 81t-19 109zM159 245q0 -74 30.5 -118.5t84.5 -44.5t85 44.5t31 118.5q0 75 -31 119.5t-85 44.5t-84.5 -44.5
t-30.5 -119.5zM144 719h114l90 -146h-86z" />
    <glyph glyph-name="oacute" unicode="&#xf3;" horiz-adv-x="549" 
d="M41 245q0 61 19 109t51.5 81t74.5 50.5t88 17.5t88.5 -17.5t74.5 -50.5t51.5 -81t19.5 -109t-19.5 -109t-51.5 -81t-74.5 -50t-88.5 -17t-88 17t-74.5 50t-51.5 81t-19 109zM159 245q0 -74 30.5 -118.5t84.5 -44.5t85 44.5t31 118.5q0 75 -31 119.5t-85 44.5t-84.5 -44.5
t-30.5 -119.5zM286 573h-86l90 146h114z" />
    <glyph glyph-name="ocircumflex" unicode="&#xf4;" horiz-adv-x="549" 
d="M41 245q0 61 19 109t51.5 81t74.5 50.5t88 17.5t88.5 -17.5t74.5 -50.5t51.5 -81t19.5 -109t-19.5 -109t-51.5 -81t-74.5 -50t-88.5 -17t-88 17t-74.5 50t-51.5 81t-19 109zM159 245q0 -74 30.5 -118.5t84.5 -44.5t85 44.5t31 118.5q0 75 -31 119.5t-85 44.5t-84.5 -44.5
t-30.5 -119.5zM228 719h92l96 -146h-80l-60 85h-4l-60 -85h-80z" />
    <glyph glyph-name="otilde" unicode="&#xf5;" horiz-adv-x="549" 
d="M41 245q0 61 19 109t51.5 81t74.5 50.5t88 17.5t88.5 -17.5t74.5 -50.5t51.5 -81t19.5 -109t-19.5 -109t-51.5 -81t-74.5 -50t-88.5 -17t-88 17t-74.5 50t-51.5 81t-19 109zM159 245q0 -74 30.5 -118.5t84.5 -44.5t85 44.5t31 118.5q0 75 -31 119.5t-85 44.5t-84.5 -44.5
t-30.5 -119.5zM121 577q6 57 30.5 89t62.5 32q19 0 35.5 -7.5t30.5 -16.5t26 -16.5t24 -7.5q26 0 36 48h61q-6 -57 -30.5 -89t-62.5 -32q-20 0 -36 7.5t-29.5 16.5t-26 16.5t-24.5 7.5q-26 0 -36 -48h-61v0z" />
    <glyph glyph-name="odieresis" unicode="&#xf6;" horiz-adv-x="549" 
d="M41 245q0 61 19 109t51.5 81t74.5 50.5t88 17.5t88.5 -17.5t74.5 -50.5t51.5 -81t19.5 -109t-19.5 -109t-51.5 -81t-74.5 -50t-88.5 -17t-88 17t-74.5 50t-51.5 81t-19 109zM159 245q0 -74 30.5 -118.5t84.5 -44.5t85 44.5t31 118.5q0 75 -31 119.5t-85 44.5t-84.5 -44.5
t-30.5 -119.5zM181 579q-26 0 -42.5 17t-16.5 43q0 25 16.5 42t42.5 17t43 -17t17 -42q0 -26 -17 -43t-43 -17zM367 579q-26 0 -43 17t-17 43q0 25 17 42t43 17t42.5 -17t16.5 -42q0 -26 -16.5 -43t-42.5 -17z" />
    <glyph glyph-name="divide" unicode="&#xf7;" horiz-adv-x="513" 
d="M256 444q-29 0 -48.5 18.5t-19.5 47.5t19.5 47t48.5 18t48.5 -18t19.5 -47t-19.5 -47.5t-48.5 -18.5zM188 150q0 29 19.5 47t48.5 18t48.5 -18t19.5 -47t-19.5 -47.5t-48.5 -18.5t-48.5 18.5t-19.5 47.5zM34 372h445v-84h-445v84z" />
    <glyph glyph-name="oslash" unicode="&#xf8;" horiz-adv-x="549" 
d="M199 108q30 -30 75 -30q54 0 88 44.5t34 116.5q0 53 -14 92zM349 384q-31 29 -75 29q-54 0 -87.5 -45t-33.5 -117q0 -52 14 -91zM453 418q26 -32 40.5 -75.5t14.5 -97.5q0 -61 -19.5 -109t-51.5 -81t-74.5 -50t-88.5 -17q-37 0 -72 11t-64 33l-46 -56l-46 36l50 61
q-26 32 -40.5 75t-14.5 97q0 61 19 109t51.5 81t74.5 50.5t88 17.5q77 0 136 -44l47 57l46 -36z" />
    <glyph glyph-name="ugrave" unicode="&#xf9;" horiz-adv-x="556" 
d="M68 491h115v-293q0 -61 18 -86t58 -25q32 0 56.5 16t52.5 52v336h115v-491h-94l-9 72h-3q-32 -38 -69.5 -61t-88.5 -23q-79 0 -115 50.5t-36 144.5v308zM149 719h114l90 -146h-86z" />
    <glyph glyph-name="uacute" unicode="&#xfa;" horiz-adv-x="556" 
d="M68 491h115v-293q0 -61 18 -86t58 -25q32 0 56.5 16t52.5 52v336h115v-491h-94l-9 72h-3q-32 -38 -69.5 -61t-88.5 -23q-79 0 -115 50.5t-36 144.5v308zM291 573h-86l90 146h114z" />
    <glyph glyph-name="ucircumflex" unicode="&#xfb;" horiz-adv-x="556" 
d="M68 491h115v-293q0 -61 18 -86t58 -25q32 0 56.5 16t52.5 52v336h115v-491h-94l-9 72h-3q-32 -38 -69.5 -61t-88.5 -23q-79 0 -115 50.5t-36 144.5v308zM233 719h92l96 -146h-80l-60 85h-4l-60 -85h-80z" />
    <glyph glyph-name="udieresis" unicode="&#xfc;" horiz-adv-x="556" 
d="M68 491h115v-293q0 -61 18 -86t58 -25q32 0 56.5 16t52.5 52v336h115v-491h-94l-9 72h-3q-32 -38 -69.5 -61t-88.5 -23q-79 0 -115 50.5t-36 144.5v308zM186 579q-26 0 -42.5 17t-16.5 43q0 25 16.5 42t42.5 17t43 -17t17 -42q0 -26 -17 -43t-43 -17zM372 579
q-26 0 -43 17t-17 43q0 25 17 42t43 17t42.5 -17t16.5 -42q0 -26 -16.5 -43t-42.5 -17z" />
    <glyph glyph-name="yacute" unicode="&#xfd;" horiz-adv-x="495" 
d="M63 -102q7 -2 16.5 -4.5t18.5 -2.5q39 0 62.5 23.5t35.5 60.5l9 31l-193 485h117l85 -241q11 -32 21.5 -67.5t21.5 -70.5h4q9 34 18.5 69.5t18.5 68.5l74 241h111l-178 -513q-15 -42 -33 -75t-41.5 -56.5t-54 -36t-70.5 -12.5q-20 0 -35 2.5t-29 7.5l21 90v0zM267 573
h-86l90 146h114z" />
    <glyph glyph-name="thorn" unicode="&#xfe;" horiz-adv-x="564" 
d="M188 -194h-115v900h115v-182l-2 -77q29 24 63.5 40t72.5 16q47 0 84 -17.5t62.5 -50.5t39 -79t13.5 -103q0 -63 -17.5 -112.5t-46.5 -83t-67 -51.5t-79 -18q-35 0 -65.5 13t-59.5 37l2 -78v-154zM188 124q27 -23 52 -32t47 -9q49 0 82 42.5t33 126.5q0 74 -25 115t-81 41
q-52 0 -108 -55v-229z" />
    <glyph glyph-name="ydieresis" unicode="&#xff;" horiz-adv-x="495" 
d="M63 -102q7 -2 16.5 -4.5t18.5 -2.5q39 0 62.5 23.5t35.5 60.5l9 31l-193 485h117l85 -241q11 -32 21.5 -67.5t21.5 -70.5h4q9 34 18.5 69.5t18.5 68.5l74 241h111l-178 -513q-15 -42 -33 -75t-41.5 -56.5t-54 -36t-70.5 -12.5q-20 0 -35 2.5t-29 7.5l21 90v0zM162 579
q-26 0 -42.5 17t-16.5 43q0 25 16.5 42t42.5 17t43 -17t17 -42q0 -26 -17 -43t-43 -17zM348 579q-26 0 -43 17t-17 43q0 25 17 42t43 17t42.5 -17t16.5 -42q0 -26 -16.5 -43t-42.5 -17z" />
    <glyph glyph-name="Amacron" unicode="&#x100;" horiz-adv-x="555" 
d="M359 268l-23 80q-15 52 -30 107t-29 109h-4q-14 -55 -28 -109.5t-30 -106.5l-23 -80h167zM385 177h-219l-51 -177h-119l214 654h136l213 -654h-123zM142 800h266v-76h-266v76z" />
    <glyph glyph-name="amacron" unicode="&#x101;" horiz-adv-x="523" 
d="M52 132q0 79 69 122t220 60q0 19 -5 36.5t-15.5 31t-27 21t-41.5 7.5q-37 0 -71.5 -14t-66.5 -34l-42 77q41 26 91.5 45t109.5 19q93 0 138 -54.5t45 -157.5v-291h-94l-9 54h-3q-33 -28 -70.5 -47t-81.5 -19q-65 0 -105.5 39.5t-40.5 104.5zM164 141q0 -33 19.5 -48
t50.5 -15q30 0 55 14t52 40v110q-50 -6 -84 -16t-54.5 -22.5t-29.5 -28.5t-9 -34zM145 672h260v-76h-260v76z" />
    <glyph glyph-name="Abreve" unicode="&#x102;" horiz-adv-x="555" 
d="M359 268l-23 80q-15 52 -30 107t-29 109h-4q-14 -55 -28 -109.5t-30 -106.5l-23 -80h167zM385 177h-219l-51 -177h-119l214 654h136l213 -654h-123zM275 705q-63 0 -94 33.5t-36 81.5h66q5 -22 19.5 -38t44.5 -16t44.5 16t19.5 38h66q-5 -48 -36 -81.5t-94 -33.5z" />
    <glyph glyph-name="abreve" unicode="&#x103;" horiz-adv-x="523" 
d="M52 132q0 79 69 122t220 60q0 19 -5 36.5t-15.5 31t-27 21t-41.5 7.5q-37 0 -71.5 -14t-66.5 -34l-42 77q41 26 91.5 45t109.5 19q93 0 138 -54.5t45 -157.5v-291h-94l-9 54h-3q-33 -28 -70.5 -47t-81.5 -19q-65 0 -105.5 39.5t-40.5 104.5zM164 141q0 -33 19.5 -48
t50.5 -15q30 0 55 14t52 40v110q-50 -6 -84 -16t-54.5 -22.5t-29.5 -28.5t-9 -34zM275 575q-34 0 -58.5 11.5t-40.5 30t-24.5 42.5t-9.5 49h67q4 -27 19.5 -47.5t46.5 -20.5t46.5 20.5t19.5 47.5h67q-2 -25 -10 -49t-24 -42.5t-40.5 -30t-58.5 -11.5z" />
    <glyph glyph-name="Aogonek" unicode="&#x104;" horiz-adv-x="555" 
d="M359 268l-23 80q-15 52 -30 107t-29 109h-4q-14 -55 -28 -109.5t-30 -106.5l-23 -80h167zM585 -186q-17 -14 -43.5 -23t-49.5 -9q-44 0 -74.5 23t-30.5 68q0 22 7.5 41.5t19 36t25.5 29t27 20.5h-30l-51 177h-219l-51 -177h-119l214 654h136l213 -654q-19 -5 -34.5 -15
t-27 -23.5t-17.5 -29t-6 -30.5q0 -21 12.5 -31.5t29.5 -10.5q23 0 40 14z" />
    <glyph glyph-name="aogonek" unicode="&#x105;" horiz-adv-x="523" 
d="M164 141q0 -33 19.5 -48t50.5 -15q30 0 55 14t52 40v110q-50 -6 -84 -16t-54.5 -22.5t-29.5 -28.5t-9 -34zM52 132q0 79 69 122t220 60q0 19 -5 36.5t-15.5 31t-27 21t-41.5 7.5q-37 0 -71.5 -14t-66.5 -34l-42 77q41 26 91.5 45t109.5 19q93 0 138 -54.5t45 -157.5v-291
q-45 -15 -66 -42t-21 -53q0 -22 13.5 -32t30.5 -10q22 0 38 13l26 -54q-17 -14 -42.5 -22t-47.5 -8q-42 0 -70 22t-28 66q0 21 7 39.5t18 34t24 27.5t25 20l-10 53h-3q-33 -28 -70.5 -47t-81.5 -19q-65 0 -105.5 39.5t-40.5 104.5z" />
    <glyph glyph-name="Cacute" unicode="&#x106;" horiz-adv-x="573" 
d="M47 325q0 80 23.5 143.5t64.5 107.5t96 67t118 23q60 0 107.5 -25t78.5 -58l-64 -72q-26 25 -54.5 39.5t-66.5 14.5q-40 0 -74 -16.5t-58.5 -47t-38 -74.5t-13.5 -99q0 -112 49 -175.5t131 -63.5q44 0 77 17t61 48l64 -71q-40 -46 -90.5 -70.5t-113.5 -24.5
q-62 0 -116.5 22t-94.5 65t-63 106t-23 144zM365 704h-93l84 116h126z" />
    <glyph glyph-name="cacute" unicode="&#x107;" horiz-adv-x="462" 
d="M41 245q0 61 20 109t54 81t78.5 50.5t93.5 17.5q48 0 83.5 -16.5t60.5 -40.5l-55 -73q-20 17 -40 26.5t-43 9.5q-60 0 -97 -44.5t-37 -119.5q0 -74 36.5 -118.5t94.5 -44.5q30 0 55.5 12.5t45.5 29.5l48 -73q-35 -31 -77 -47t-84 -16q-50 0 -93.5 17t-75.5 50t-50 81
t-18 109zM297 573h-86l90 146h114z" />
    <glyph glyph-name="Ccircumflex" unicode="&#x108;" horiz-adv-x="573" 
d="M47 325q0 80 23.5 143.5t64.5 107.5t96 67t118 23q60 0 107.5 -25t78.5 -58l-64 -72q-26 25 -54.5 39.5t-66.5 14.5q-40 0 -74 -16.5t-58.5 -47t-38 -74.5t-13.5 -99q0 -112 49 -175.5t131 -63.5q44 0 77 17t61 48l64 -71q-40 -46 -90.5 -70.5t-113.5 -24.5
q-62 0 -116.5 22t-94.5 65t-63 106t-23 144zM183 704l96 116h112l96 -116h-90l-60 64h-4l-60 -64h-90z" />
    <glyph glyph-name="ccircumflex" unicode="&#x109;" horiz-adv-x="462" 
d="M41 245q0 61 20 109t54 81t78.5 50.5t93.5 17.5q48 0 83.5 -16.5t60.5 -40.5l-55 -73q-20 17 -40 26.5t-43 9.5q-60 0 -97 -44.5t-37 -119.5q0 -74 36.5 -118.5t94.5 -44.5q30 0 55.5 12.5t45.5 29.5l48 -73q-35 -31 -77 -47t-84 -16q-50 0 -93.5 17t-75.5 50t-50 81
t-18 109zM239 719h92l96 -146h-80l-60 85h-4l-60 -85h-80z" />
    <glyph glyph-name="Cdotaccent" unicode="&#x10a;" horiz-adv-x="573" 
d="M47 325q0 80 23.5 143.5t64.5 107.5t96 67t118 23q60 0 107.5 -25t78.5 -58l-64 -72q-26 25 -54.5 39.5t-66.5 14.5q-40 0 -74 -16.5t-58.5 -47t-38 -74.5t-13.5 -99q0 -112 49 -175.5t131 -63.5q44 0 77 17t61 48l64 -71q-40 -46 -90.5 -70.5t-113.5 -24.5
q-62 0 -116.5 22t-94.5 65t-63 106t-23 144zM335 707q-31 0 -51 18.5t-20 47.5t20 47t51 18t51 -18t20 -47t-20 -47.5t-51 -18.5z" />
    <glyph glyph-name="cdotaccent" unicode="&#x10b;" horiz-adv-x="462" 
d="M41 245q0 61 20 109t54 81t78.5 50.5t93.5 17.5q48 0 83.5 -16.5t60.5 -40.5l-55 -73q-20 17 -40 26.5t-43 9.5q-60 0 -97 -44.5t-37 -119.5q0 -74 36.5 -118.5t94.5 -44.5q30 0 55.5 12.5t45.5 29.5l48 -73q-35 -31 -77 -47t-84 -16q-50 0 -93.5 17t-75.5 50t-50 81
t-18 109zM285 577q-30 0 -49 18.5t-19 47.5t19 47t49 18t49 -18t19 -47t-19 -47.5t-49 -18.5z" />
    <glyph glyph-name="Ccaron" unicode="&#x10c;" horiz-adv-x="573" 
d="M47 325q0 80 23.5 143.5t64.5 107.5t96 67t118 23q60 0 107.5 -25t78.5 -58l-64 -72q-26 25 -54.5 39.5t-66.5 14.5q-40 0 -74 -16.5t-58.5 -47t-38 -74.5t-13.5 -99q0 -112 49 -175.5t131 -63.5q44 0 77 17t61 48l64 -71q-40 -46 -90.5 -70.5t-113.5 -24.5
q-62 0 -116.5 22t-94.5 65t-63 106t-23 144zM487 820l-96 -116h-112l-96 116h90l60 -64h4l60 64h90z" />
    <glyph glyph-name="ccaron" unicode="&#x10d;" horiz-adv-x="462" 
d="M41 245q0 61 20 109t54 81t78.5 50.5t93.5 17.5q48 0 83.5 -16.5t60.5 -40.5l-55 -73q-20 17 -40 26.5t-43 9.5q-60 0 -97 -44.5t-37 -119.5q0 -74 36.5 -118.5t94.5 -44.5q30 0 55.5 12.5t45.5 29.5l48 -73q-35 -31 -77 -47t-84 -16q-50 0 -93.5 17t-75.5 50t-50 81
t-18 109zM143 719h80l60 -85h4l60 85h80l-96 -146h-92z" />
    <glyph glyph-name="Dcaron" unicode="&#x10e;" horiz-adv-x="623" 
d="M82 654h174q150 0 234.5 -81t84.5 -243q0 -81 -21.5 -143t-62 -103.5t-98.5 -62.5t-131 -21h-180v654zM248 94q100 0 154 57.5t54 178.5q0 120 -54.5 175t-153.5 55h-50v-466h50zM463 820l-96 -116h-112l-96 116h90l60 -64h4l60 64h90z" />
    <glyph glyph-name="dcaron" unicode="&#x10f;" horiz-adv-x="594" 
d="M43 245q0 60 17.5 108t46.5 81t66.5 51t77.5 18q42 0 71 -14.5t58 -39.5l-4 79v178h115v-706h-95l-8 53h-4q-27 -27 -63 -46t-76 -19q-93 0 -147.5 67.5t-54.5 189.5zM162 246q0 -80 28.5 -121.5t82.5 -41.5q55 0 103 55v229q-26 23 -50.5 32t-49.5 9q-48 0 -81 -42
t-33 -120zM541 548l-5 217h77l-1 -63l-19 -154h-52z" />
    <glyph glyph-name="Dcroat" unicode="&#x110;" horiz-adv-x="645" 
d="M270 94q100 0 154 57.5t54 178.5q0 120 -54.5 175t-153.5 55h-50v-190h138v-59h-138v-217h50zM278 654q150 0 234.5 -81t84.5 -243q0 -81 -21.5 -143t-62 -103.5t-98.5 -62.5t-131 -21h-180v311h-76v55l76 4v284h174z" />
    <glyph glyph-name="dcroat" unicode="&#x111;" horiz-adv-x="564" 
d="M376 347q-26 23 -50.5 32t-49.5 9q-24 0 -44.5 -10.5t-36 -30t-24.5 -47.5t-9 -64q0 -76 28.5 -114.5t82.5 -38.5q55 0 103 55v209zM561 569l-70 -5v-564h-97l-8 50h-3q-27 -27 -62 -44.5t-76 -17.5q-93 0 -147.5 64.5t-54.5 182.5q0 57 17.5 103t46.5 78.5t66.5 49.5
t77.5 17q42 0 71 -14.5t58 -39.5l-4 79v56h-156v59h156v83h115v-83h70v-54z" />
    <glyph glyph-name="Emacron" unicode="&#x112;" horiz-adv-x="534" 
d="M82 654h393v-98h-277v-167h235v-98h-235v-193h287v-98h-403v654zM152 800h266v-76h-266v76z" />
    <glyph glyph-name="emacron" unicode="&#x113;" horiz-adv-x="507" 
d="M41 245q0 60 19 108t50.5 81t72.5 51t84 18q50 0 88 -17t63.5 -48t38.5 -74t13 -94q0 -34 -5 -54h-312q8 -67 46.5 -103t98.5 -36q32 0 59.5 9.5t54.5 26.5l39 -72q-35 -23 -78 -38t-90 -15q-51 0 -95 17.5t-77 50.5t-51.5 80.5t-18.5 108.5zM370 289q0 59 -24.5 92
t-75.5 33q-44 0 -77 -31.5t-41 -93.5h218zM137 672h260v-76h-260v76z" />
    <glyph glyph-name="Ebreve" unicode="&#x114;" horiz-adv-x="534" 
d="M82 654h393v-98h-277v-167h235v-98h-235v-193h287v-98h-403v654zM285 705q-63 0 -94 33.5t-36 81.5h66q5 -22 19.5 -38t44.5 -16t44.5 16t19.5 38h66q-5 -48 -36 -81.5t-94 -33.5z" />
    <glyph glyph-name="ebreve" unicode="&#x115;" horiz-adv-x="507" 
d="M41 245q0 60 19 108t50.5 81t72.5 51t84 18q50 0 88 -17t63.5 -48t38.5 -74t13 -94q0 -34 -5 -54h-312q8 -67 46.5 -103t98.5 -36q32 0 59.5 9.5t54.5 26.5l39 -72q-35 -23 -78 -38t-90 -15q-51 0 -95 17.5t-77 50.5t-51.5 80.5t-18.5 108.5zM370 289q0 59 -24.5 92
t-75.5 33q-44 0 -77 -31.5t-41 -93.5h218zM267 575q-34 0 -58.5 11.5t-40.5 30t-24.5 42.5t-9.5 49h67q4 -27 19.5 -47.5t46.5 -20.5t46.5 20.5t19.5 47.5h67q-2 -25 -10 -49t-24 -42.5t-40.5 -30t-58.5 -11.5z" />
    <glyph glyph-name="Edotaccent" unicode="&#x116;" horiz-adv-x="534" 
d="M82 654h393v-98h-277v-167h235v-98h-235v-193h287v-98h-403v654zM285 707q-31 0 -51 18.5t-20 47.5t20 47t51 18t51 -18t20 -47t-20 -47.5t-51 -18.5z" />
    <glyph glyph-name="edotaccent" unicode="&#x117;" horiz-adv-x="507" 
d="M41 245q0 60 19 108t50.5 81t72.5 51t84 18q50 0 88 -17t63.5 -48t38.5 -74t13 -94q0 -34 -5 -54h-312q8 -67 46.5 -103t98.5 -36q32 0 59.5 9.5t54.5 26.5l39 -72q-35 -23 -78 -38t-90 -15q-51 0 -95 17.5t-77 50.5t-51.5 80.5t-18.5 108.5zM370 289q0 59 -24.5 92
t-75.5 33q-44 0 -77 -31.5t-41 -93.5h218zM267 577q-30 0 -49 18.5t-19 47.5t19 47t49 18t49 -18t19 -47t-19 -47.5t-49 -18.5z" />
    <glyph glyph-name="Eogonek" unicode="&#x118;" horiz-adv-x="534" 
d="M82 654h393v-98h-277v-167h235v-98h-235v-193h287v-98h-4q-17 -2 -33 -10.5t-28.5 -22t-20 -30.5t-7.5 -35q0 -22 14 -32t31 -10q11 0 20.5 4t17.5 10l28 -60q-17 -14 -43 -23t-49 -9q-45 0 -75 23t-30 68q0 22 7 41.5t18 35.5t24.5 29t26.5 21h-300v654z" />
    <glyph glyph-name="eogonek" unicode="&#x119;" horiz-adv-x="507" 
d="M41 245q0 60 19 108t50.5 81t72.5 51t84 18q50 0 88 -17t63.5 -48t38.5 -74t13 -94q0 -34 -5 -54h-312q8 -67 46.5 -103t98.5 -36q32 0 59.5 9.5t54.5 26.5l39 -72q-33 -23 -54 -41.5t-33 -34t-17 -30.5t-5 -30q0 -21 13 -31.5t32 -10.5t37 13l26 -54q-17 -14 -43 -22
t-47 -8q-42 0 -69.5 22t-27.5 66q0 37 19 66.5t39 46.5q-11 -3 -20 -4t-18 -1q-51 0 -95 17.5t-77 50.5t-51.5 80.5t-18.5 108.5zM370 289q0 59 -24.5 92t-75.5 33q-44 0 -77 -31t-41 -94h218z" />
    <glyph glyph-name="Ecaron" unicode="&#x11a;" horiz-adv-x="534" 
d="M82 654h393v-98h-277v-167h235v-98h-235v-193h287v-98h-403v654zM437 820l-96 -116h-112l-96 116h90l60 -64h4l60 64h90z" />
    <glyph glyph-name="ecaron" unicode="&#x11b;" horiz-adv-x="507" 
d="M41 245q0 60 19 108t50.5 81t72.5 51t84 18q50 0 88 -17t63.5 -48t38.5 -74t13 -94q0 -34 -5 -54h-312q8 -67 46.5 -103t98.5 -36q32 0 59.5 9.5t54.5 26.5l39 -72q-35 -23 -78 -38t-90 -15q-51 0 -95 17.5t-77 50.5t-51.5 80.5t-18.5 108.5zM370 289q0 59 -24.5 92
t-75.5 33q-44 0 -77 -31.5t-41 -93.5h218zM125 719h80l60 -85h4l60 85h80l-96 -146h-92z" />
    <glyph glyph-name="Gcircumflex" unicode="&#x11c;" horiz-adv-x="624" 
d="M47 325q0 80 24 143.5t66 107.5t99 67t123 23q34 0 63 -7t53 -18.5t44 -26.5t35 -31l-64 -72q-25 24 -54.5 39t-75.5 15q-44 0 -79.5 -16.5t-61 -47t-39.5 -74.5t-14 -99q0 -112 51 -175.5t150 -63.5q27 0 52 7.5t41 21.5v141h-123v95h227v-288q-34 -32 -89 -55t-122 -23
q-65 0 -121 22t-97 65t-64.5 106t-23.5 144zM207 704l96 116h112l96 -116h-90l-60 64h-4l-60 -64h-90z" />
    <glyph glyph-name="gcircumflex" unicode="&#x11d;" horiz-adv-x="520" 
d="M136 -72q0 -33 33.5 -51.5t92.5 -18.5q60 0 96.5 23.5t36.5 55.5q0 29 -22.5 39t-64.5 10h-67q-40 0 -67 7q-38 -29 -38 -65zM40 -89q0 31 18 57.5t52 47.5v4q-19 12 -31.5 32t-12.5 50q0 29 16.5 52.5t37.5 38.5v4q-25 19 -44.5 52.5t-19.5 77.5q0 42 16 75t42.5 55.5
t61.5 34t74 11.5q20 0 38.5 -3.5t33.5 -8.5h176v-85h-90q12 -14 20 -35.5t8 -47.5q0 -41 -14.5 -72t-39.5 -52t-59 -32t-73 -11q-16 0 -33 3t-34 10q-11 -10 -17.5 -20t-6.5 -27q0 -21 17.5 -33t62.5 -12h87q89 0 134.5 -28.5t45.5 -92.5q0 -36 -18.5 -68t-52.5 -55
t-82.5 -36.5t-108.5 -13.5q-44 0 -81.5 8t-64.5 24t-42.5 40t-15.5 56zM250 228q35 0 60 25.5t25 73.5q0 46 -24.5 71.5t-60.5 25.5t-61 -25t-25 -72q0 -48 25 -73.5t61 -25.5zM200 719h92l96 -146h-80l-60 85h-4l-60 -85h-80z" />
    <glyph glyph-name="Gbreve" unicode="&#x11e;" horiz-adv-x="624" 
d="M47 325q0 80 24 143.5t66 107.5t99 67t123 23q34 0 63 -7t53 -18.5t44 -26.5t35 -31l-64 -72q-25 24 -54.5 39t-75.5 15q-44 0 -79.5 -16.5t-61 -47t-39.5 -74.5t-14 -99q0 -112 51 -175.5t150 -63.5q27 0 52 7.5t41 21.5v141h-123v95h227v-288q-34 -32 -89 -55t-122 -23
q-65 0 -121 22t-97 65t-64.5 106t-23.5 144zM359 705q-63 0 -94 33.5t-36 81.5h66q5 -22 19.5 -38t44.5 -16t44.5 16t19.5 38h66q-5 -48 -36 -81.5t-94 -33.5z" />
    <glyph glyph-name="gbreve" unicode="&#x11f;" horiz-adv-x="520" 
d="M136 -72q0 -33 33.5 -51.5t92.5 -18.5q60 0 96.5 23.5t36.5 55.5q0 29 -22.5 39t-64.5 10h-67q-40 0 -67 7q-38 -29 -38 -65zM40 -89q0 31 18 57.5t52 47.5v4q-19 12 -31.5 32t-12.5 50q0 29 16.5 52.5t37.5 38.5v4q-25 19 -44.5 52.5t-19.5 77.5q0 42 16 75t42.5 55.5
t61.5 34t74 11.5q20 0 38.5 -3.5t33.5 -8.5h176v-85h-90q12 -14 20 -35.5t8 -47.5q0 -41 -14.5 -72t-39.5 -52t-59 -32t-73 -11q-16 0 -33 3t-34 10q-11 -10 -17.5 -20t-6.5 -27q0 -21 17.5 -33t62.5 -12h87q89 0 134.5 -28.5t45.5 -92.5q0 -36 -18.5 -68t-52.5 -55
t-82.5 -36.5t-108.5 -13.5q-44 0 -81.5 8t-64.5 24t-42.5 40t-15.5 56zM250 228q35 0 60 25.5t25 73.5q0 46 -24.5 71.5t-60.5 25.5t-61 -25t-25 -72q0 -48 25 -73.5t61 -25.5zM246 575q-34 0 -58.5 11.5t-40.5 30t-24.5 42.5t-9.5 49h67q4 -27 19.5 -47.5t46.5 -20.5
t46.5 20.5t19.5 47.5h67q-2 -25 -10 -49t-24 -42.5t-40.5 -30t-58.5 -11.5z" />
    <glyph glyph-name="Gdotaccent" unicode="&#x120;" horiz-adv-x="624" 
d="M47 325q0 80 24 143.5t66 107.5t99 67t123 23q34 0 63 -7t53 -18.5t44 -26.5t35 -31l-64 -72q-25 24 -54.5 39t-75.5 15q-44 0 -79.5 -16.5t-61 -47t-39.5 -74.5t-14 -99q0 -112 51 -175.5t150 -63.5q27 0 52 7.5t41 21.5v141h-123v95h227v-288q-34 -32 -89 -55t-122 -23
q-65 0 -121 22t-97 65t-64.5 106t-23.5 144zM359 707q-31 0 -51 18.5t-20 47.5t20 47t51 18t51 -18t20 -47t-20 -47.5t-51 -18.5z" />
    <glyph glyph-name="gdotaccent" unicode="&#x121;" horiz-adv-x="520" 
d="M136 -72q0 -33 33.5 -51.5t92.5 -18.5q60 0 96.5 23.5t36.5 55.5q0 29 -22.5 39t-64.5 10h-67q-40 0 -67 7q-38 -29 -38 -65zM40 -89q0 31 18 57.5t52 47.5v4q-19 12 -31.5 32t-12.5 50q0 29 16.5 52.5t37.5 38.5v4q-25 19 -44.5 52.5t-19.5 77.5q0 42 16 75t42.5 55.5
t61.5 34t74 11.5q20 0 38.5 -3.5t33.5 -8.5h176v-85h-90q12 -14 20 -35.5t8 -47.5q0 -41 -14.5 -72t-39.5 -52t-59 -32t-73 -11q-16 0 -33 3t-34 10q-11 -10 -17.5 -20t-6.5 -27q0 -21 17.5 -33t62.5 -12h87q89 0 134.5 -28.5t45.5 -92.5q0 -36 -18.5 -68t-52.5 -55
t-82.5 -36.5t-108.5 -13.5q-44 0 -81.5 8t-64.5 24t-42.5 40t-15.5 56zM250 228q35 0 60 25.5t25 73.5q0 46 -24.5 71.5t-60.5 25.5t-61 -25t-25 -72q0 -48 25 -73.5t61 -25.5zM246 577q-30 0 -49 18.5t-19 47.5t19 47t49 18t49 -18t19 -47t-19 -47.5t-49 -18.5z" />
    <glyph glyph-name="uni0122" unicode="&#x122;" horiz-adv-x="624" 
d="M47 325q0 80 24 143.5t66 107.5t99 67t123 23q34 0 63 -7t53 -18.5t44 -26.5t35 -31l-64 -72q-25 24 -54.5 39t-75.5 15q-44 0 -79.5 -16.5t-61 -47t-39.5 -74.5t-14 -99q0 -112 51 -175.5t150 -63.5q27 0 52 7.5t41 21.5v141h-123v95h227v-288q-34 -32 -89 -55t-122 -23
q-65 0 -121 22t-97 65t-64.5 106t-23.5 144zM322 -45q59 -7 84 -26t25 -54q0 -24 -13 -41t-35.5 -29t-51.5 -19t-61 -9l-10 50q38 5 62 14t24 27q0 17 -12.5 26.5t-35.5 14.5l24 46v0z" />
    <glyph glyph-name="uni0123" unicode="&#x123;" horiz-adv-x="520" 
d="M136 -72q0 -33 33.5 -51.5t92.5 -18.5q60 0 96.5 23.5t36.5 55.5q0 29 -22.5 39t-64.5 10h-67q-40 0 -67 7q-38 -29 -38 -65zM40 -89q0 31 18 57.5t52 47.5v4q-19 12 -31.5 32t-12.5 50q0 29 16.5 52.5t37.5 38.5v4q-25 19 -44.5 52.5t-19.5 77.5q0 42 16 75t42.5 55.5
t61.5 34t74 11.5q20 0 38.5 -3.5t33.5 -8.5h176v-85h-90q12 -14 20 -35.5t8 -47.5q0 -41 -14.5 -72t-39.5 -52t-59 -32t-73 -11q-16 0 -33 3t-34 10q-11 -10 -17.5 -20t-6.5 -27q0 -21 17.5 -33t62.5 -12h87q89 0 134.5 -28.5t45.5 -92.5q0 -36 -18.5 -68t-52.5 -55
t-82.5 -36.5t-108.5 -13.5q-44 0 -81.5 8t-64.5 24t-42.5 40t-15.5 56zM250 228q35 0 60 25.5t25 73.5q0 46 -24.5 71.5t-60.5 25.5t-61 -25t-25 -72q0 -48 25 -73.5t61 -25.5zM278 543q-60 7 -85 26t-25 54q0 24 13 41t35.5 29t52 19t61.5 9l9 -50q-38 -5 -61.5 -14
t-23.5 -27q0 -17 12.5 -26.5t34.5 -14.5l-23 -46v0z" />
    <glyph glyph-name="Hcircumflex" unicode="&#x124;" horiz-adv-x="660" 
d="M82 654h116v-263h264v263h116v-654h-116v290h-264v-290h-116v654zM177 704l96 116h112l96 -116h-90l-60 64h-4l-60 -64h-90z" />
    <glyph glyph-name="hcircumflex" unicode="&#x125;" horiz-adv-x="558" 
d="M73 706h115v-182l-4 -95q31 29 68.5 51.5t88.5 22.5q79 0 115 -50.5t36 -144.5v-308h-115v293q0 61 -18 86t-59 25q-32 0 -56.5 -15.5t-55.5 -45.5v-343h-115v706zM-22 749l96 116h112l96 -116h-90l-60 64h-4l-60 -64h-90z" />
    <glyph glyph-name="Hbar" unicode="&#x126;" horiz-adv-x="696" 
d="M480 489h-264v-98h264v98zM670 489h-74v-489h-116v290h-264v-290h-116v489h-73v54l73 5v106h116v-106h264v106h116v-106h74v-59z" />
    <glyph glyph-name="hbar" unicode="&#x127;" horiz-adv-x="558" 
d="M184 409q31 29 68.5 51.5t88.5 22.5q79 0 115 -50.5t36 -144.5v-288h-115v273q0 61 -18 86t-59 25q-32 0 -56.5 -15.5t-55.5 -45.5v-323h-115v564h-71v54l71 5v83h115v-83h176v-59h-176v-60z" />
    <glyph glyph-name="Itilde" unicode="&#x128;" horiz-adv-x="279" 
d="M82 654h116v-654h-116v654zM201 707q-20 0 -36.5 7.5t-31 17t-27 17t-25.5 7.5q-14 0 -24 -12t-15 -37h-61q6 58 32 90t64 32q20 0 36.5 -7.5t31 -16.5t27 -16.5t25.5 -7.5q14 0 24 11.5t15 36.5h61q-6 -57 -32 -89.5t-64 -32.5z" />
    <glyph glyph-name="itilde" unicode="&#x129;" horiz-adv-x="262" 
d="M73 491h115v-491h-115v491zM-22 577q6 57 30.5 89t62.5 32q19 0 35.5 -7.5t30.5 -16.5t26 -16.5t24 -7.5q26 0 36 48h61q-6 -57 -30.5 -89t-62.5 -32q-20 0 -36 7.5t-29.5 16.5t-26 16.5t-24.5 7.5q-26 0 -36 -48h-61v0z" />
    <glyph glyph-name="Imacron" unicode="&#x12a;" horiz-adv-x="279" 
d="M82 654h116v-654h-116v654zM6 800h266v-76h-266v76z" />
    <glyph glyph-name="imacron" unicode="&#x12b;" horiz-adv-x="262" 
d="M73 491h115v-491h-115v491zM1 672h260v-76h-260v76z" />
    <glyph glyph-name="uni012C" unicode="&#x12c;" horiz-adv-x="279" 
d="M82 654h116v-654h-116v654zM139 705q-63 0 -94 33.5t-36 81.5h66q5 -22 19.5 -38t44.5 -16t44.5 16t19.5 38h66q-5 -48 -36 -81.5t-94 -33.5z" />
    <glyph glyph-name="uni012D" unicode="&#x12d;" horiz-adv-x="262" 
d="M73 491h115v-491h-115v491zM131 575q-34 0 -58.5 11.5t-40.5 30t-24.5 42.5t-9.5 49h67q4 -27 19.5 -47.5t46.5 -20.5t46.5 20.5t19.5 47.5h67q-2 -25 -10 -49t-24 -42.5t-40.5 -30t-58.5 -11.5z" />
    <glyph glyph-name="Iogonek" unicode="&#x12e;" horiz-adv-x="279" 
d="M82 654h116v-654q-36 -20 -53 -45t-17 -53q0 -22 13.5 -32t30.5 -10q11 0 20.5 4t17.5 10l29 -60q-17 -14 -43.5 -23t-49.5 -9q-44 0 -74.5 23t-30.5 68q0 23 6.5 42t17 35t23 28.5t23.5 21.5h-29v654z" />
    <glyph glyph-name="iogonek" unicode="&#x12f;" horiz-adv-x="262" 
d="M73 491h115v-491q-35 -18 -51.5 -43.5t-16.5 -51.5q0 -21 13.5 -31.5t31.5 -10.5q17 0 37 13l26 -54q-17 -14 -43 -22t-47 -8q-42 0 -70 22t-28 66q0 21 6.5 39t16 33t20.5 27t21 21h-31v491zM130 577q-30 0 -50.5 18t-20.5 47t20.5 47.5t50.5 18.5q31 0 51.5 -18.5
t20.5 -47.5t-20.5 -47t-51.5 -18z" />
    <glyph glyph-name="Idotaccent" unicode="&#x130;" horiz-adv-x="279" 
d="M82 654h116v-654h-116v654zM139 707q-31 0 -51 18.5t-20 47.5t20 47t51 18t51 -18t20 -47t-20 -47.5t-51 -18.5z" />
    <glyph glyph-name="dotlessi" unicode="&#x131;" horiz-adv-x="262" 
d="M73 491h115v-491h-115v491z" />
    <glyph glyph-name="Jcircumflex" unicode="&#x134;" horiz-adv-x="491" 
d="M102 158q20 -36 46 -52.5t56 -16.5q46 0 69.5 28t23.5 98v439h116v-449q0 -45 -11.5 -84.5t-35 -69t-60.5 -46.5t-88 -17q-69 0 -116.5 28t-79.5 83zM199 704l96 116h112l96 -116h-90l-60 64h-4l-60 -64h-90z" />
    <glyph glyph-name="jcircumflex" unicode="&#x135;" horiz-adv-x="263" 
d="M74 491h116v-516q0 -39 -8 -72t-26.5 -57.5t-48.5 -38t-73 -13.5q-27 0 -46.5 4t-33.5 9l22 86q10 -3 20.5 -5.5t21.5 -2.5q33 0 44.5 22.5t11.5 65.5v518zM86 719h92l96 -146h-80l-60 85h-4l-60 -85h-80z" />
    <glyph glyph-name="uni0136" unicode="&#x136;" horiz-adv-x="594" 
d="M82 654h116v-297h3l233 297h128l-201 -255l235 -399h-128l-176 308l-94 -117v-191h-116v654zM295 -45q59 -7 84 -26t25 -54q0 -24 -13 -41t-35.5 -29t-51.5 -19t-61 -9l-10 50q38 5 62 14t24 27q0 17 -12.5 26.5t-35.5 14.5l24 46v0z" />
    <glyph glyph-name="uni0137" unicode="&#x137;" horiz-adv-x="522" 
d="M73 706h113v-441h3l182 226h126l-168 -200l185 -291h-125l-126 213l-77 -88v-125h-113v706zM251 -45q59 -7 84 -26t25 -54q0 -24 -13 -41t-35.5 -29t-51.5 -19t-61 -9l-10 50q38 5 62 14t24 27q0 17 -12.5 26.5t-35.5 14.5l24 46v0z" />
    <glyph glyph-name="kgreenlandic" unicode="&#x138;" horiz-adv-x="522" 
d="M73 491h115v-228h4l179 228h126l-166 -200l183 -291h-125l-126 210l-75 -89v-121h-115v491z" />
    <glyph glyph-name="Lacute" unicode="&#x139;" horiz-adv-x="499" 
d="M82 654h116v-556h271v-98h-387v654zM172 704h-93l84 116h126z" />
    <glyph glyph-name="lacute" unicode="&#x13a;" horiz-adv-x="271" 
d="M73 706h115v-586q0 -21 8 -29.5t17 -8.5h7.5t10.5 2l15 -86q-23 -10 -61 -10q-62 0 -87 37t-25 101v580zM160 758h-93l84 116h126z" />
    <glyph glyph-name="uni013B" unicode="&#x13b;" horiz-adv-x="499" 
d="M82 654h116v-556h271v-98h-387v654zM255 -45q59 -7 84 -26t25 -54q0 -24 -13 -41t-35.5 -29t-51.5 -19t-61 -9l-10 50q38 5 62 14t24 27q0 17 -12.5 26.5t-35.5 14.5l24 46v0z" />
    <glyph glyph-name="uni013C" unicode="&#x13c;" horiz-adv-x="271" 
d="M73 706h115v-586q0 -21 8 -29.5t17 -8.5h7.5t10.5 2l15 -86q-23 -10 -61 -10q-62 0 -87 37t-25 101v580zM148 -45q59 -7 84 -26t25 -54q0 -24 -13 -41t-35.5 -29t-51.5 -19t-61 -9l-10 50q38 5 62 14t24 27q0 17 -12.5 26.5t-35.5 14.5l24 46v0z" />
    <glyph glyph-name="Lcaron" unicode="&#x13d;" horiz-adv-x="499" 
d="M82 654h116v-556h271v-98h-387v654zM341 513l-5 217h77l-1 -63l-19 -154h-52z" />
    <glyph glyph-name="lcaron" unicode="&#x13e;" horiz-adv-x="292" 
d="M73 706h115v-586q0 -21 8 -29.5t17 -8.5h7.5t10.5 2l15 -86q-23 -10 -61 -10q-62 0 -87 37t-25 101v580zM239 548l-5 217h77l-1 -63l-19 -154h-52z" />
    <glyph glyph-name="Ldot" unicode="&#x13f;" horiz-adv-x="499" 
d="M82 654h116v-556h271v-98h-387v654zM318 327q0 34 21.5 56t53.5 22t53 -22t21 -56t-21 -56t-53 -22t-53.5 22t-21.5 56z" />
    <glyph glyph-name="ldot" unicode="&#x140;" horiz-adv-x="408" 
d="M73 706h115v-586q0 -21 8 -29.5t17 -8.5h7.5t10.5 2l15 -86q-23 -10 -61 -10q-62 0 -87 37t-25 101v580zM260 327q0 34 21.5 56t53.5 22t53 -22t21 -56t-21 -56t-53 -22t-53.5 22t-21.5 56z" />
    <glyph glyph-name="Lslash" unicode="&#x141;" horiz-adv-x="504" 
d="M474 98v-98h-388v220l-76 -40v91l76 40v343h116v-286l181 98v-91l-181 -98v-179h272z" />
    <glyph glyph-name="lslash" unicode="&#x142;" horiz-adv-x="283" 
d="M196 362v-242q0 -21 7.5 -29.5t16.5 -8.5h8.5t9.5 2l15 -86q-11 -5 -25.5 -7.5t-35.5 -2.5q-62 0 -87 37t-25 101v177l-61 -38v94l61 38v309h116v-249l68 41v-95z" />
    <glyph glyph-name="Nacute" unicode="&#x143;" horiz-adv-x="653" 
d="M82 654h119l203 -368l68 -139h4q-5 51 -10 109.5t-5 113.5v284h110v-654h-119l-203 368l-68 139h-4q5 -52 10 -109t5 -112v-286h-110v654zM358 704h-93l84 116h126z" />
    <glyph glyph-name="nacute" unicode="&#x144;" horiz-adv-x="560" 
d="M73 491h95l8 -66h4q33 32 71.5 55t89.5 23q79 0 115 -50.5t36 -144.5v-308h-115v293q0 61 -18 86t-59 25q-32 0 -56.5 -15.5t-55.5 -45.5v-343h-115v491zM312 573h-86l90 146h114z" />
    <glyph glyph-name="uni0145" unicode="&#x145;" horiz-adv-x="653" 
d="M82 654h119l203 -368l68 -139h4q-5 51 -10 109.5t-5 113.5v284h110v-654h-119l-203 368l-68 139h-4q5 -52 10 -109t5 -112v-286h-110v654zM302 -45q59 -7 84 -26t25 -54q0 -24 -13 -41t-35.5 -29t-51.5 -19t-61 -9l-10 50q38 5 62 14t24 27q0 17 -12.5 26.5t-35.5 14.5
l24 46v0z" />
    <glyph glyph-name="uni0146" unicode="&#x146;" horiz-adv-x="560" 
d="M73 491h95l8 -66h4q33 32 71.5 55t89.5 23q79 0 115 -50.5t36 -144.5v-308h-115v293q0 61 -18 86t-59 25q-32 0 -56.5 -15.5t-55.5 -45.5v-343h-115v491zM253 -45q59 -7 84 -26t25 -54q0 -24 -13 -41t-35.5 -29t-51.5 -19t-61 -9l-10 50q38 5 62 14t24 27
q0 17 -12.5 26.5t-35.5 14.5l24 46v0z" />
    <glyph glyph-name="Ncaron" unicode="&#x147;" horiz-adv-x="653" 
d="M82 654h119l203 -368l68 -139h4q-5 51 -10 109.5t-5 113.5v284h110v-654h-119l-203 368l-68 139h-4q5 -52 10 -109t5 -112v-286h-110v654zM480 820l-96 -116h-112l-96 116h90l60 -64h4l60 64h90z" />
    <glyph glyph-name="ncaron" unicode="&#x148;" horiz-adv-x="560" 
d="M73 491h95l8 -66h4q33 32 71.5 55t89.5 23q79 0 115 -50.5t36 -144.5v-308h-115v293q0 61 -18 86t-59 25q-32 0 -56.5 -15.5t-55.5 -45.5v-343h-115v491zM158 719h80l60 -85h4l60 85h80l-96 -146h-92z" />
    <glyph glyph-name="napostrophe" unicode="&#x149;" horiz-adv-x="814" 
d="M67 442q42 24 62.5 52.5t20.5 73.5q-3 -1 -9 -1q-26 0 -45.5 16.5t-19.5 45.5q0 32 18 50.5t47 18.5q38 0 58.5 -29t20.5 -82q0 -131 -125 -196zM324 491h95l8 -66h4q33 32 71.5 55t89.5 23q79 0 115 -50.5t36 -144.5v-308h-115v293q0 61 -18 86t-59 25
q-32 0 -56.5 -15.5t-55.5 -45.5v-343h-115v491z" />
    <glyph glyph-name="Omacron" unicode="&#x14c;" horiz-adv-x="671" 
d="M336 -12q-64 0 -117 23.5t-91.5 68t-59.5 107.5t-21 143q0 79 21 141.5t59.5 105.5t91.5 66t117 23t117 -23t91 -66t59 -105.5t21 -141.5q0 -80 -21 -143t-59 -107.5t-91 -68t-117 -23.5zM336 89q38 0 69.5 17t53.5 48.5t34 76t12 99.5q0 110 -46 172.5t-123 62.5
q-78 0 -124 -62.5t-46 -172.5q0 -55 12 -99.5t34.5 -76t53.5 -48.5t70 -17zM202 800h266v-76h-266v76z" />
    <glyph glyph-name="omacron" unicode="&#x14d;" horiz-adv-x="549" 
d="M41 245q0 61 19 109t51.5 81t74.5 50.5t88 17.5t88.5 -17.5t74.5 -50.5t51.5 -81t19.5 -109t-19.5 -109t-51.5 -81t-74.5 -50t-88.5 -17t-88 17t-74.5 50t-51.5 81t-19 109zM159 245q0 -74 30.5 -118.5t84.5 -44.5t85 44.5t31 118.5q0 75 -31 119.5t-85 44.5t-84.5 -44.5
t-30.5 -119.5zM144 672h260v-76h-260v76z" />
    <glyph glyph-name="uni014E" unicode="&#x14e;" horiz-adv-x="671" 
d="M336 -12q-64 0 -117 23.5t-91.5 68t-59.5 107.5t-21 143q0 79 21 141.5t59.5 105.5t91.5 66t117 23t117 -23t91 -66t59 -105.5t21 -141.5q0 -80 -21 -143t-59 -107.5t-91 -68t-117 -23.5zM336 89q38 0 69.5 17t53.5 48.5t34 76t12 99.5q0 110 -46 172.5t-123 62.5
q-78 0 -124 -62.5t-46 -172.5q0 -55 12 -99.5t34.5 -76t53.5 -48.5t70 -17zM335 705q-63 0 -94 33.5t-36 81.5h66q5 -22 19.5 -38t44.5 -16t44.5 16t19.5 38h66q-5 -48 -36 -81.5t-94 -33.5z" />
    <glyph glyph-name="uni014F" unicode="&#x14f;" horiz-adv-x="549" 
d="M41 245q0 61 19 109t51.5 81t74.5 50.5t88 17.5t88.5 -17.5t74.5 -50.5t51.5 -81t19.5 -109t-19.5 -109t-51.5 -81t-74.5 -50t-88.5 -17t-88 17t-74.5 50t-51.5 81t-19 109zM159 245q0 -74 30.5 -118.5t84.5 -44.5t85 44.5t31 118.5q0 75 -31 119.5t-85 44.5t-84.5 -44.5
t-30.5 -119.5zM274 575q-34 0 -58.5 11.5t-40.5 30t-24.5 42.5t-9.5 49h67q4 -27 19.5 -47.5t46.5 -20.5t46.5 20.5t19.5 47.5h67q-2 -25 -10 -49t-24 -42.5t-40.5 -30t-58.5 -11.5z" />
    <glyph glyph-name="Ohungarumlaut" unicode="&#x150;" horiz-adv-x="671" 
d="M336 -12q-64 0 -117 23.5t-91.5 68t-59.5 107.5t-21 143q0 79 21 141.5t59.5 105.5t91.5 66t117 23t117 -23t91 -66t59 -105.5t21 -141.5q0 -80 -21 -143t-59 -107.5t-91 -68t-117 -23.5zM336 89q38 0 69.5 17t53.5 48.5t34 76t12 99.5q0 110 -46 172.5t-123 62.5
q-78 0 -124 -62.5t-46 -172.5q0 -55 12 -99.5t34.5 -76t53.5 -48.5t70 -17zM212 704l64 116h102l-87 -116h-79zM445 820h102l-87 -116h-79z" />
    <glyph glyph-name="ohungarumlaut" unicode="&#x151;" horiz-adv-x="549" 
d="M41 245q0 61 19 109t51.5 81t74.5 50.5t88 17.5t88.5 -17.5t74.5 -50.5t51.5 -81t19.5 -109t-19.5 -109t-51.5 -81t-74.5 -50t-88.5 -17t-88 17t-74.5 50t-51.5 81t-19 109zM159 245q0 -74 30.5 -118.5t84.5 -44.5t85 44.5t31 118.5q0 75 -31 119.5t-85 44.5t-84.5 -44.5
t-30.5 -119.5zM232 719h94l-91 -147h-73zM391 719h95l-92 -147h-73z" />
    <glyph glyph-name="OE" unicode="&#x152;" horiz-adv-x="856" 
d="M47 330q0 81 23.5 141.5t66.5 101t103.5 61t134.5 20.5h422v-98h-263v-167h220v-98h-220v-193h273v-98h-438q-72 0 -131.5 21t-101.5 62.5t-65.5 103.5t-23.5 143zM166 330q0 -122 57 -179t160 -57h35v466h-35q-102 0 -159.5 -54.5t-57.5 -175.5z" />
    <glyph glyph-name="oe" unicode="&#x153;" horiz-adv-x="830" 
d="M158 245q0 -74 30 -118.5t80 -44.5q51 0 81 44.5t30 118.5q0 75 -30 119.5t-81 44.5q-50 0 -80 -44.5t-30 -119.5zM41 245q0 61 18.5 109t49.5 81t72 50.5t87 17.5q54 0 97.5 -27t70.5 -77q29 49 72 76.5t92 27.5q47 0 83.5 -17.5t61 -48.5t37 -74.5t12.5 -94.5
q0 -17 -1.5 -31t-3.5 -23h-303q6 -64 44 -99t92 -35q32 0 58.5 10.5t53.5 27.5l41 -77q-35 -23 -78 -38t-91 -15q-51 0 -95 27.5t-73 76.5q-30 -51 -72.5 -77.5t-99.5 -26.5q-46 0 -87 17t-71.5 50t-48.5 81t-18 109zM694 287q0 60 -24.5 93.5t-72.5 33.5q-43 0 -73.5 -33
t-37.5 -94h208z" />
    <glyph glyph-name="Racute" unicode="&#x154;" horiz-adv-x="596" 
d="M198 348h92q68 0 103 28t35 84q0 57 -35 79t-103 22h-92v-213zM438 0l-141 256h-99v-256h-116v654h220q51 0 95 -10t76.5 -32.5t51 -59.5t18.5 -92q0 -75 -35.5 -121t-95.5 -66l156 -273h-130zM331 704h-93l84 116h126z" />
    <glyph glyph-name="racute" unicode="&#x155;" horiz-adv-x="373" 
d="M73 491h95l8 -87h4q26 48 63 73.5t76 25.5q35 0 56 -10l-20 -100q-13 4 -24 6t-27 2q-29 0 -61 -22.5t-55 -78.5v-300h-115v491zM244 573h-86l90 146h114z" />
    <glyph glyph-name="uni0156" unicode="&#x156;" horiz-adv-x="596" 
d="M198 348h92q68 0 103 28t35 84q0 57 -35 79t-103 22h-92v-213zM438 0l-141 256h-99v-256h-116v654h220q51 0 95 -10t76.5 -32.5t51 -59.5t18.5 -92q0 -75 -35.5 -121t-95.5 -66l156 -273h-130zM285 -45q59 -7 84 -26t25 -54q0 -24 -13 -41t-35.5 -29t-51.5 -19t-61 -9
l-10 50q38 5 62 14t24 27q0 17 -12.5 26.5t-35.5 14.5l24 46v0z" />
    <glyph glyph-name="uni0157" unicode="&#x157;" horiz-adv-x="373" 
d="M73 491h95l8 -87h4q26 48 63 73.5t76 25.5q35 0 56 -10l-20 -100q-13 4 -24 6t-27 2q-29 0 -61 -22.5t-55 -78.5v-300h-115v491zM97 -45q59 -7 84 -26t25 -54q0 -24 -13 -41t-35.5 -29t-51.5 -19t-61 -9l-10 50q38 5 62 14t24 27q0 17 -12.5 26.5t-35.5 14.5l24 46v0z
" />
    <glyph glyph-name="Rcaron" unicode="&#x158;" horiz-adv-x="596" 
d="M198 348h92q68 0 103 28t35 84q0 57 -35 79t-103 22h-92v-213zM438 0l-141 256h-99v-256h-116v654h220q51 0 95 -10t76.5 -32.5t51 -59.5t18.5 -92q0 -75 -35.5 -121t-95.5 -66l156 -273h-130zM453 820l-96 -116h-112l-96 116h90l60 -64h4l60 64h90z" />
    <glyph glyph-name="rcaron" unicode="&#x159;" horiz-adv-x="373" 
d="M73 491h95l8 -87h4q26 48 63 73.5t76 25.5q35 0 56 -10l-20 -100q-13 4 -24 6t-27 2q-29 0 -61 -22.5t-55 -78.5v-300h-115v491zM90 719h80l60 -85h4l60 85h80l-96 -146h-92z" />
    <glyph glyph-name="Sacute" unicode="&#x15a;" horiz-adv-x="542" 
d="M104 163q35 -33 80 -53.5t91 -20.5q55 0 84.5 23t29.5 61q0 20 -7.5 34t-21 24.5t-32.5 19.5t-41 18l-89 39q-24 10 -48 25t-42.5 36t-30 49t-11.5 64q0 39 16.5 72.5t45.5 58.5t69 39t88 14q58 0 111 -22.5t91 -60.5l-60 -74q-31 26 -65.5 41t-76.5 15
q-47 0 -74.5 -20.5t-27.5 -56.5q0 -19 8.5 -32.5t23 -24t33.5 -19t39 -16.5l88 -37q29 -12 53.5 -28t42 -37t27 -48.5t9.5 -63.5q0 -40 -16 -75t-46.5 -61.5t-74 -42t-98.5 -15.5q-66 0 -127 25t-108 71zM314 704h-93l84 116h126z" />
    <glyph glyph-name="sacute" unicode="&#x15b;" horiz-adv-x="431" 
d="M78 130q33 -26 65.5 -40.5t70.5 -14.5q40 0 59 16.5t19 42.5q0 15 -9 26.5t-24 20.5t-34 16.5t-38 15.5q-24 9 -49 21t-44.5 29t-32 39.5t-12.5 53.5q0 65 48 106t131 41q51 0 92 -18t71 -41l-53 -70q-26 19 -52.5 30.5t-55.5 11.5q-37 0 -54.5 -15.5t-17.5 -38.5
q0 -14 8.5 -24.5t22.5 -19t32.5 -15.5t38.5 -14q25 -9 50 -20.5t45.5 -28.5t33 -41.5t12.5 -58.5q0 -32 -12.5 -59.5t-36.5 -48t-60 -32.5t-82 -12q-51 0 -100.5 19.5t-85.5 48.5zM239 573h-86l90 146h114z" />
    <glyph glyph-name="Scircumflex" unicode="&#x15c;" horiz-adv-x="542" 
d="M104 163q35 -33 80 -53.5t91 -20.5q55 0 84.5 23t29.5 61q0 20 -7.5 34t-21 24.5t-32.5 19.5t-41 18l-89 39q-24 10 -48 25t-42.5 36t-30 49t-11.5 64q0 39 16.5 72.5t45.5 58.5t69 39t88 14q58 0 111 -22.5t91 -60.5l-60 -74q-31 26 -65.5 41t-76.5 15
q-47 0 -74.5 -20.5t-27.5 -56.5q0 -19 8.5 -32.5t23 -24t33.5 -19t39 -16.5l88 -37q29 -12 53.5 -28t42 -37t27 -48.5t9.5 -63.5q0 -40 -16 -75t-46.5 -61.5t-74 -42t-98.5 -15.5q-66 0 -127 25t-108 71zM132 704l96 116h112l96 -116h-90l-60 64h-4l-60 -64h-90z" />
    <glyph glyph-name="scircumflex" unicode="&#x15d;" horiz-adv-x="431" 
d="M78 130q33 -26 65.5 -40.5t70.5 -14.5q40 0 59 16.5t19 42.5q0 15 -9 26.5t-24 20.5t-34 16.5t-38 15.5q-24 9 -49 21t-44.5 29t-32 39.5t-12.5 53.5q0 65 48 106t131 41q51 0 92 -18t71 -41l-53 -70q-26 19 -52.5 30.5t-55.5 11.5q-37 0 -54.5 -15.5t-17.5 -38.5
q0 -14 8.5 -24.5t22.5 -19t32.5 -15.5t38.5 -14q25 -9 50 -20.5t45.5 -28.5t33 -41.5t12.5 -58.5q0 -32 -12.5 -59.5t-36.5 -48t-60 -32.5t-82 -12q-51 0 -100.5 19.5t-85.5 48.5zM181 719h92l96 -146h-80l-60 85h-4l-60 -85h-80z" />
    <glyph glyph-name="uni015E" unicode="&#x15e;" horiz-adv-x="542" 
d="M104 163q35 -33 80 -53.5t91 -20.5q55 0 84.5 23t29.5 61q0 20 -7.5 34t-21 24.5t-32.5 19.5t-41 18l-89 39q-24 10 -48 25t-42.5 36t-30 49t-11.5 64q0 39 16.5 72.5t45.5 58.5t69 39t88 14q58 0 111 -22.5t91 -60.5l-60 -74q-31 26 -65.5 41t-76.5 15
q-47 0 -74.5 -20.5t-27.5 -56.5q0 -19 8.5 -32.5t23 -24t33.5 -19t39 -16.5l88 -37q29 -12 53.5 -28t42 -37t27 -48.5t9.5 -63.5q0 -40 -16 -75t-46.5 -61.5t-74 -42t-98.5 -15.5q-66 0 -127 25t-108 71zM246 3h70l-23 -49q25 -9 42 -25.5t17 -47.5q0 -24 -13 -41t-35.5 -29
t-51.5 -19t-61 -9l-10 50q38 5 62 15.5t24 30.5q0 16 -14.5 27t-46.5 19z" />
    <glyph glyph-name="uni015F" unicode="&#x15f;" horiz-adv-x="431" 
d="M78 130q33 -26 65.5 -40.5t70.5 -14.5q40 0 59 16.5t19 42.5q0 15 -9 26.5t-24 20.5t-34 16.5t-38 15.5q-24 9 -49 21t-44.5 29t-32 39.5t-12.5 53.5q0 65 48 106t131 41q51 0 92 -18t71 -41l-53 -70q-26 19 -52.5 30.5t-55.5 11.5q-37 0 -54.5 -15.5t-17.5 -38.5
q0 -14 8.5 -24.5t22.5 -19t32.5 -15.5t38.5 -14q25 -9 50 -20.5t45.5 -28.5t33 -41.5t12.5 -58.5q0 -32 -12.5 -59.5t-36.5 -48t-60 -32.5t-82 -12q-51 0 -100.5 19.5t-85.5 48.5zM200 3h70l-23 -49q25 -9 42 -25.5t17 -47.5q0 -24 -13 -41t-35.5 -29t-51.5 -19t-61 -9
l-10 50q38 5 62 15.5t24 30.5q0 16 -14.5 27t-46.5 19z" />
    <glyph glyph-name="Scaron" unicode="&#x160;" horiz-adv-x="542" 
d="M104 163q35 -33 80 -53.5t91 -20.5q55 0 84.5 23t29.5 61q0 20 -7.5 34t-21 24.5t-32.5 19.5t-41 18l-89 39q-24 10 -48 25t-42.5 36t-30 49t-11.5 64q0 39 16.5 72.5t45.5 58.5t69 39t88 14q58 0 111 -22.5t91 -60.5l-60 -74q-31 26 -65.5 41t-76.5 15
q-47 0 -74.5 -20.5t-27.5 -56.5q0 -19 8.5 -32.5t23 -24t33.5 -19t39 -16.5l88 -37q29 -12 53.5 -28t42 -37t27 -48.5t9.5 -63.5q0 -40 -16 -75t-46.5 -61.5t-74 -42t-98.5 -15.5q-66 0 -127 25t-108 71zM436 820l-96 -116h-112l-96 116h90l60 -64h4l60 64h90z" />
    <glyph glyph-name="scaron" unicode="&#x161;" horiz-adv-x="431" 
d="M78 130q33 -26 65.5 -40.5t70.5 -14.5q40 0 59 16.5t19 42.5q0 15 -9 26.5t-24 20.5t-34 16.5t-38 15.5q-24 9 -49 21t-44.5 29t-32 39.5t-12.5 53.5q0 65 48 106t131 41q51 0 92 -18t71 -41l-53 -70q-26 19 -52.5 30.5t-55.5 11.5q-37 0 -54.5 -15.5t-17.5 -38.5
q0 -14 8.5 -24.5t22.5 -19t32.5 -15.5t38.5 -14q25 -9 50 -20.5t45.5 -28.5t33 -41.5t12.5 -58.5q0 -32 -12.5 -59.5t-36.5 -48t-60 -32.5t-82 -12q-51 0 -100.5 19.5t-85.5 48.5zM85 719h80l60 -85h4l60 85h80l-96 -146h-92z" />
    <glyph glyph-name="uni0162" unicode="&#x162;" horiz-adv-x="543" 
d="M214 556h-189v98h493v-98h-188v-556h-116v556zM241 3h70l-23 -49q25 -9 42 -25.5t17 -47.5q0 -24 -13 -41t-35.5 -29t-51.5 -19t-61 -9l-10 50q38 5 62 15.5t24 30.5q0 16 -14.5 27t-46.5 19z" />
    <glyph glyph-name="uni0163" unicode="&#x163;" horiz-adv-x="361" 
d="M90 400h-70v86l76 5l14 134h96v-134h125v-91h-125v-234q0 -86 69 -86q13 0 26.5 3t24.5 8l20 -85q-20 -7 -45.5 -12.5t-54.5 -5.5q-43 0 -72.5 13t-48 36.5t-27 56t-8.5 72.5v234zM199 3h70l-23 -49q25 -9 42 -25.5t17 -47.5q0 -24 -13 -41t-35.5 -29t-51.5 -19t-61 -9
l-10 50q38 5 62 15.5t24 30.5q0 16 -14.5 27t-46.5 19z" />
    <glyph glyph-name="Tcaron" unicode="&#x164;" horiz-adv-x="543" 
d="M214 556h-189v98h493v-98h-188v-556h-116v556zM423 820l-96 -116h-112l-96 116h90l60 -64h4l60 64h90z" />
    <glyph glyph-name="tcaron" unicode="&#x165;" horiz-adv-x="361" 
d="M90 400h-70v86l76 5l14 134h96v-134h125v-91h-125v-234q0 -86 69 -86q13 0 26.5 3t24.5 8l20 -85q-20 -7 -45.5 -12.5t-54.5 -5.5q-43 0 -72.5 13t-48 36.5t-27 56t-8.5 72.5v234zM268 548l-5 217h77l-1 -63l-19 -154h-52z" />
    <glyph glyph-name="Utilde" unicode="&#x168;" horiz-adv-x="652" 
d="M78 654h116v-376q0 -53 9.5 -89.5t27 -58.5t42 -31.5t54.5 -9.5t55 9.5t42.5 31.5t27.5 58.5t10 89.5v376h112v-367q0 -81 -17.5 -137.5t-49.5 -92.5t-77.5 -52.5t-102.5 -16.5t-103 16.5t-78.5 52.5t-50 92.5t-17.5 137.5v367zM388 707q-20 0 -36.5 7.5t-31 17t-27 17
t-25.5 7.5q-14 0 -24 -12t-15 -37h-61q6 58 32 90t64 32q20 0 36.5 -7.5t31 -16.5t27 -16.5t25.5 -7.5q14 0 24 11.5t15 36.5h61q-6 -57 -32 -89.5t-64 -32.5z" />
    <glyph glyph-name="utilde" unicode="&#x169;" horiz-adv-x="556" 
d="M68 491h115v-293q0 -61 18 -86t58 -25q32 0 56.5 16t52.5 52v336h115v-491h-94l-9 72h-3q-32 -38 -69.5 -61t-88.5 -23q-79 0 -115 50.5t-36 144.5v308zM126 577q6 57 30.5 89t62.5 32q19 0 35.5 -7.5t30.5 -16.5t26 -16.5t24 -7.5q26 0 36 48h61q-6 -57 -30.5 -89
t-62.5 -32q-20 0 -36 7.5t-29.5 16.5t-26 16.5t-24.5 7.5q-26 0 -36 -48h-61v0z" />
    <glyph glyph-name="Umacron" unicode="&#x16a;" horiz-adv-x="652" 
d="M78 654h116v-376q0 -53 9.5 -89.5t27 -58.5t42 -31.5t54.5 -9.5t55 9.5t42.5 31.5t27.5 58.5t10 89.5v376h112v-367q0 -81 -17.5 -137.5t-49.5 -92.5t-77.5 -52.5t-102.5 -16.5t-103 16.5t-78.5 52.5t-50 92.5t-17.5 137.5v367zM193 800h266v-76h-266v76z" />
    <glyph glyph-name="umacron" unicode="&#x16b;" horiz-adv-x="556" 
d="M68 491h115v-293q0 -61 18 -86t58 -25q32 0 56.5 16t52.5 52v336h115v-491h-94l-9 72h-3q-32 -38 -69.5 -61t-88.5 -23q-79 0 -115 50.5t-36 144.5v308zM147 672h260v-76h-260v76z" />
    <glyph glyph-name="Ubreve" unicode="&#x16c;" horiz-adv-x="652" 
d="M78 654h116v-376q0 -53 9.5 -89.5t27 -58.5t42 -31.5t54.5 -9.5t55 9.5t42.5 31.5t27.5 58.5t10 89.5v376h112v-367q0 -81 -17.5 -137.5t-49.5 -92.5t-77.5 -52.5t-102.5 -16.5t-103 16.5t-78.5 52.5t-50 92.5t-17.5 137.5v367zM326 705q-63 0 -94 33.5t-36 81.5h66
q5 -22 19.5 -38t44.5 -16t44.5 16t19.5 38h66q-5 -48 -36 -81.5t-94 -33.5z" />
    <glyph glyph-name="ubreve" unicode="&#x16d;" horiz-adv-x="556" 
d="M68 491h115v-293q0 -61 18 -86t58 -25q32 0 56.5 16t52.5 52v336h115v-491h-94l-9 72h-3q-32 -38 -69.5 -61t-88.5 -23q-79 0 -115 50.5t-36 144.5v308zM279 575q-34 0 -58.5 11.5t-40.5 30t-24.5 42.5t-9.5 49h67q4 -27 19.5 -47.5t46.5 -20.5t46.5 20.5t19.5 47.5h67
q-2 -25 -10 -49t-24 -42.5t-40.5 -30t-58.5 -11.5z" />
    <glyph glyph-name="Uring" unicode="&#x16e;" horiz-adv-x="652" 
d="M78 654h116v-376q0 -53 9.5 -89.5t27 -58.5t42 -31.5t54.5 -9.5t55 9.5t42.5 31.5t27.5 58.5t10 89.5v376h112v-367q0 -81 -17.5 -137.5t-49.5 -92.5t-77.5 -52.5t-102.5 -16.5t-103 16.5t-78.5 52.5t-50 92.5t-17.5 137.5v367zM326 698q-46 0 -74.5 25t-28.5 68
q0 42 28.5 67.5t74.5 25.5q45 0 74 -25.5t29 -67.5q0 -43 -29 -68t-74 -25zM326 744q18 0 31 12t13 35q0 22 -13 34.5t-31 12.5q-19 0 -31.5 -12.5t-12.5 -34.5q0 -23 12.5 -35t31.5 -12z" />
    <glyph glyph-name="uring" unicode="&#x16f;" horiz-adv-x="556" 
d="M68 491h115v-293q0 -61 18 -86t58 -25q32 0 56.5 16t52.5 52v336h115v-491h-94l-9 72h-3q-32 -38 -69.5 -61t-88.5 -23q-79 0 -115 50.5t-36 144.5v308zM279 545q-46 0 -74.5 26.5t-28.5 70.5q0 45 28.5 71.5t74.5 26.5t74.5 -26.5t28.5 -71.5q0 -44 -28.5 -70.5
t-74.5 -26.5zM279 591q19 0 31.5 14t12.5 37t-12.5 37.5t-31.5 14.5t-31.5 -14.5t-12.5 -37.5t12.5 -37t31.5 -14z" />
    <glyph glyph-name="Uhungarumlaut" unicode="&#x170;" horiz-adv-x="652" 
d="M78 654h116v-376q0 -53 9.5 -89.5t27 -58.5t42 -31.5t54.5 -9.5t55 9.5t42.5 31.5t27.5 58.5t10 89.5v376h112v-367q0 -81 -17.5 -137.5t-49.5 -92.5t-77.5 -52.5t-102.5 -16.5t-103 16.5t-78.5 52.5t-50 92.5t-17.5 137.5v367zM203 704l64 116h102l-87 -116h-79z
M436 820h102l-87 -116h-79z" />
    <glyph glyph-name="uhungarumlaut" unicode="&#x171;" horiz-adv-x="556" 
d="M68 491h115v-293q0 -61 18 -86t58 -25q32 0 56.5 16t52.5 52v336h115v-491h-94l-9 72h-3q-32 -38 -69.5 -61t-88.5 -23q-79 0 -115 50.5t-36 144.5v308zM237 719h94l-91 -147h-73zM396 719h95l-92 -147h-73z" />
    <glyph glyph-name="Uogonek" unicode="&#x172;" horiz-adv-x="652" 
d="M78 654h116v-376q0 -53 9.5 -89.5t27 -58.5t42 -31.5t54.5 -9.5t55 9.5t42.5 31.5t27.5 58.5t10 89.5v376h112v-367q0 -68 -11 -115t-32 -80.5t-52 -56t-71 -41.5q-38 -18 -56.5 -43.5t-18.5 -48.5q0 -22 14 -32t31 -10q11 0 20.5 4t17.5 10l28 -60q-17 -14 -43 -23
t-49 -9q-44 0 -74.5 23t-30.5 68q0 22 7 40t17 32.5t21 25t19 18.5q-54 3 -97.5 21t-73.5 54t-46 91t-16 132v367z" />
    <glyph glyph-name="uogonek" unicode="&#x173;" horiz-adv-x="556" 
d="M68 491h115v-293q0 -61 18 -86t58 -25q32 0 56.5 16t52.5 52v336h115v-491q-47 -18 -67 -43.5t-20 -51.5q0 -21 13.5 -31.5t30.5 -10.5q22 0 38 13l26 -54q-17 -14 -43 -22t-47 -8q-42 0 -70 22t-28 66q0 21 7 39t17.5 33t23.5 27.5t26 21.5l-10 71h-3q-32 -38 -69.5 -61
t-88.5 -23q-79 0 -115 50.5t-36 144.5v308z" />
    <glyph glyph-name="Wcircumflex" unicode="&#x174;" horiz-adv-x="797" 
d="M16 654h120l56 -330q8 -53 16.5 -105t16.5 -104h4q10 52 20.5 104.5t21.5 104.5l81 330h100l81 -330q11 -51 21.5 -103.5t21.5 -105.5h4q8 53 16 105l16 104l56 330h112l-126 -654h-144l-81 344q-8 38 -15 75.5t-14 75.5h-4q-7 -38 -14 -75.5t-15 -75.5l-79 -344h-142z
M246 704l96 116h112l96 -116h-90l-60 64h-4l-60 -64h-90z" />
    <glyph glyph-name="wcircumflex" unicode="&#x175;" horiz-adv-x="748" 
d="M24 491h116l59 -255q8 -35 13.5 -70t12.5 -71h4q7 36 14.5 71t16.5 70l64 255h105l65 -255q9 -35 17 -70t16 -71h4q7 36 13 71t13 70l59 255h108l-125 -491h-137l-57 229q-8 35 -15 69.5t-15 73.5h-4q-7 -39 -14 -74t-15 -70l-56 -228h-132zM329 719h92l96 -146h-80
l-60 85h-4l-60 -85h-80z" />
    <glyph glyph-name="Ycircumflex" unicode="&#x176;" horiz-adv-x="498" 
d="M191 243l-197 411h124l71 -167q14 -37 28.5 -71.5t29.5 -72.5h4q16 38 31.5 72.5t29.5 71.5l71 167h121l-197 -411v-243h-116v243zM97 704l96 116h112l96 -116h-90l-60 64h-4l-60 -64h-90z" />
    <glyph glyph-name="ycircumflex" unicode="&#x177;" horiz-adv-x="495" 
d="M63 -102q7 -2 16.5 -4.5t18.5 -2.5q39 0 62.5 23.5t35.5 60.5l9 31l-193 485h117l85 -241q11 -32 21.5 -67.5t21.5 -70.5h4q9 34 18.5 69.5t18.5 68.5l74 241h111l-178 -513q-15 -42 -33 -75t-41.5 -56.5t-54 -36t-70.5 -12.5q-20 0 -35 2.5t-29 7.5l21 90v0zM209 719h92
l96 -146h-80l-60 85h-4l-60 -85h-80z" />
    <glyph glyph-name="Ydieresis" unicode="&#x178;" horiz-adv-x="498" 
d="M191 243l-197 411h124l71 -167q14 -37 28.5 -71.5t29.5 -72.5h4q16 38 31.5 72.5t29.5 71.5l71 167h121l-197 -411v-243h-116v243zM156 708q-26 0 -42.5 16.5t-16.5 42.5t16.5 43t42.5 17t43 -17t17 -43t-17 -42.5t-43 -16.5zM342 708q-26 0 -43 16.5t-17 42.5t17 43
t43 17t42.5 -17t16.5 -43t-16.5 -42.5t-42.5 -16.5z" />
    <glyph glyph-name="Zacute" unicode="&#x179;" horiz-adv-x="537" 
d="M38 70l317 486h-287v98h430v-70l-316 -486h319v-98h-463v70zM310 704h-93l84 116h126z" />
    <glyph glyph-name="zacute" unicode="&#x17a;" horiz-adv-x="443" 
d="M34 62l232 338h-206v91h350v-61l-231 -338h239v-92h-384v62zM249 573h-86l90 146h114z" />
    <glyph glyph-name="Zdotaccent" unicode="&#x17b;" horiz-adv-x="537" 
d="M38 70l317 486h-287v98h430v-70l-316 -486h319v-98h-463v70zM280 707q-31 0 -51 18.5t-20 47.5t20 47t51 18t51 -18t20 -47t-20 -47.5t-51 -18.5z" />
    <glyph glyph-name="zdotaccent" unicode="&#x17c;" horiz-adv-x="443" 
d="M34 62l232 338h-206v91h350v-61l-231 -338h239v-92h-384v62zM237 577q-30 0 -49 18.5t-19 47.5t19 47t49 18t49 -18t19 -47t-19 -47.5t-49 -18.5z" />
    <glyph glyph-name="Zcaron" unicode="&#x17d;" horiz-adv-x="537" 
d="M38 70l317 486h-287v98h430v-70l-316 -486h319v-98h-463v70zM432 820l-96 -116h-112l-96 116h90l60 -64h4l60 64h90z" />
    <glyph glyph-name="zcaron" unicode="&#x17e;" horiz-adv-x="443" 
d="M34 62l232 338h-206v91h350v-61l-231 -338h239v-92h-384v62zM95 719h80l60 -85h4l60 85h80l-96 -146h-92z" />
    <glyph glyph-name="uni0180" unicode="&#x180;" horiz-adv-x="558" 
d="M188 124q26 -23 51.5 -32t47.5 -9q49 0 82 40t33 119q0 69 -25 107.5t-81 38.5q-52 0 -108 -55v-209zM185 422q31 27 67.5 44t74.5 17q93 0 143.5 -65t50.5 -174q0 -61 -17.5 -108.5t-46.5 -80.5t-67 -50t-79 -17q-34 0 -68.5 16t-65.5 46h-3l-10 -50h-91v564h-71v54
l71 5v83h115v-83h176v-59h-176v-60z" />
    <glyph glyph-name="uni018F" unicode="&#x18f;" horiz-adv-x="682" 
d="M186 275q7 -91 50.5 -139.5t109.5 -48.5t111.5 49t56.5 139h-328zM135 587q37 35 90 57t125 22q63 0 115 -23t89 -66.5t57.5 -106.5t20.5 -142t-21 -142t-59 -107t-90.5 -67.5t-115.5 -23.5t-114.5 23.5t-88 67t-56.5 106t-20 139.5q0 17 3 37h446q-7 100 -52 153
t-126 53q-48 0 -85.5 -17t-66.5 -42z" />
    <glyph glyph-name="uni0192" unicode="&#x192;" horiz-adv-x="513" 
d="M455 561q-10 4 -22 8t-29 4q-39 0 -58 -30t-24 -73l-7 -59h114v-85h-124l-24 -213q-5 -45 -16 -83.5t-31.5 -66.5t-52 -44t-77.5 -16q-54 2 -80 16l18 85q21 -9 46 -9q41 1 59.5 34.5t27.5 114.5l20 182h-81v80l72 5h19l5 49q12 105 54.5 155.5t131.5 50.5q20 0 44 -5.5
t38 -12.5z" />
    <glyph glyph-name="Ohorn" unicode="&#x1a0;" horiz-adv-x="671" 
d="M336 89q38 0 69.5 17t53.5 48.5t34 76t12 99.5q0 110 -46 172.5t-123 62.5q-78 0 -124 -62.5t-46 -172.5q0 -55 12 -99.5t34.5 -76t53.5 -48.5t70 -17zM606 778q11 -14 18.5 -32t7.5 -40q0 -46 -28 -73t-75 -40q45 -44 70 -110t25 -153q0 -80 -21 -143t-59 -107.5
t-91 -68t-117 -23.5t-117 23.5t-91.5 68t-59.5 107.5t-21 143q0 79 21 141.5t59.5 105.5t91.5 66t117 23q75 0 135 -31q35 7 52.5 21t17.5 42q0 13 -4.5 24t-10.5 20z" />
    <glyph glyph-name="ohorn" unicode="&#x1a1;" horiz-adv-x="549" 
d="M274 82q54 0 85 44.5t31 118.5q0 75 -31 119.5t-85 44.5t-84.5 -44.5t-30.5 -119.5q0 -74 30.5 -118.5t84.5 -44.5zM498 626q11 -14 19 -32.5t8 -40.5q0 -46 -28 -72.5t-67 -38.5q35 -33 56.5 -82.5t21.5 -114.5q0 -61 -19.5 -109t-51.5 -81t-74.5 -50t-88.5 -17t-88 17
t-74.5 50t-51.5 81t-19 109t19 109t51.5 81t74.5 50.5t88 17.5q50 0 95 -20q30 5 47.5 19.5t17.5 42.5q0 13 -4.5 24t-11.5 20z" />
    <glyph glyph-name="Uhorn" unicode="&#x1af;" horiz-adv-x="668" 
d="M664 798q11 -14 19 -32t8 -40q0 -27 -9.5 -46.5t-25 -33.5t-37 -23t-45.5 -14v-322q0 -81 -17.5 -137.5t-49.5 -92.5t-77.5 -52.5t-102.5 -16.5t-103 16.5t-78.5 52.5t-50 92.5t-17.5 137.5v367h116v-376q0 -53 9.5 -89.5t27 -58.5t42 -31.5t54.5 -9.5t55 9.5t42.5 31.5
t27.5 58.5t10 89.5v376h53q17 1 32.5 4.5t27 11t18.5 19t7 29.5q0 13 -4.5 24t-11.5 20z" />
    <glyph glyph-name="uhorn" unicode="&#x1b0;" horiz-adv-x="556" 
d="M550 636q11 -14 18.5 -32.5t7.5 -40.5q0 -23 -7.5 -41t-20.5 -31.5t-30 -22.5t-35 -15v-453h-94l-9 72h-3q-32 -38 -69.5 -61t-88.5 -23q-79 0 -115 50.5t-36 144.5v308h115v-293q0 -61 18 -86t58 -25q32 0 56.5 16t52.5 52v336h34q16 1 31 4.5t26.5 10.5t18.5 19t7 30
q0 13 -4.5 24t-10.5 20z" />
    <glyph glyph-name="uni01CD" unicode="&#x1cd;" horiz-adv-x="555" 
d="M359 268l-23 80q-15 52 -30 107t-29 109h-4q-14 -55 -28 -109.5t-30 -106.5l-23 -80h167zM385 177h-219l-51 -177h-119l214 654h136l213 -654h-123zM427 820l-96 -116h-112l-96 116h90l60 -64h4l60 64h90z" />
    <glyph glyph-name="uni01CE" unicode="&#x1ce;" horiz-adv-x="523" 
d="M52 132q0 79 69 122t220 60q0 19 -5 36.5t-15.5 31t-27 21t-41.5 7.5q-37 0 -71.5 -14t-66.5 -34l-42 77q41 26 91.5 45t109.5 19q93 0 138 -54.5t45 -157.5v-291h-94l-9 54h-3q-33 -28 -70.5 -47t-81.5 -19q-65 0 -105.5 39.5t-40.5 104.5zM164 141q0 -33 19.5 -48
t50.5 -15q30 0 55 14t52 40v110q-50 -6 -84 -16t-54.5 -22.5t-29.5 -28.5t-9 -34zM133 719h80l60 -85h4l60 85h80l-96 -146h-92z" />
    <glyph glyph-name="uni01CF" unicode="&#x1cf;" horiz-adv-x="279" 
d="M82 654h116v-654h-116v654zM291 820l-96 -116h-112l-96 116h90l60 -64h4l60 64h90z" />
    <glyph glyph-name="uni01D0" unicode="&#x1d0;" horiz-adv-x="262" 
d="M73 491h115v-491h-115v491zM-11 719h80l60 -85h4l60 85h80l-96 -146h-92z" />
    <glyph glyph-name="uni01D1" unicode="&#x1d1;" horiz-adv-x="671" 
d="M336 -12q-64 0 -117 23.5t-91.5 68t-59.5 107.5t-21 143q0 79 21 141.5t59.5 105.5t91.5 66t117 23t117 -23t91 -66t59 -105.5t21 -141.5q0 -80 -21 -143t-59 -107.5t-91 -68t-117 -23.5zM336 89q38 0 69.5 17t53.5 48.5t34 76t12 99.5q0 110 -46 172.5t-123 62.5
q-78 0 -124 -62.5t-46 -172.5q0 -55 12 -99.5t34.5 -76t53.5 -48.5t70 -17zM487 820l-96 -116h-112l-96 116h90l60 -64h4l60 64h90z" />
    <glyph glyph-name="uni01D2" unicode="&#x1d2;" horiz-adv-x="549" 
d="M41 245q0 61 19 109t51.5 81t74.5 50.5t88 17.5t88.5 -17.5t74.5 -50.5t51.5 -81t19.5 -109t-19.5 -109t-51.5 -81t-74.5 -50t-88.5 -17t-88 17t-74.5 50t-51.5 81t-19 109zM159 245q0 -74 30.5 -118.5t84.5 -44.5t85 44.5t31 118.5q0 75 -31 119.5t-85 44.5t-84.5 -44.5
t-30.5 -119.5zM132 719h80l60 -85h4l60 85h80l-96 -146h-92z" />
    <glyph glyph-name="uni01D3" unicode="&#x1d3;" horiz-adv-x="652" 
d="M78 654h116v-376q0 -53 9.5 -89.5t27 -58.5t42 -31.5t54.5 -9.5t55 9.5t42.5 31.5t27.5 58.5t10 89.5v376h112v-367q0 -81 -17.5 -137.5t-49.5 -92.5t-77.5 -52.5t-102.5 -16.5t-103 16.5t-78.5 52.5t-50 92.5t-17.5 137.5v367zM478 820l-96 -116h-112l-96 116h90l60 -64
h4l60 64h90z" />
    <glyph glyph-name="uni01D4" unicode="&#x1d4;" horiz-adv-x="556" 
d="M68 491h115v-293q0 -61 18 -86t58 -25q32 0 56.5 16t52.5 52v336h115v-491h-94l-9 72h-3q-32 -38 -69.5 -61t-88.5 -23q-79 0 -115 50.5t-36 144.5v308zM137 719h80l60 -85h4l60 85h80l-96 -146h-92z" />
    <glyph glyph-name="uni01D5" unicode="&#x1d5;" horiz-adv-x="652" 
d="M78 654h116v-376q0 -53 9.5 -89.5t27 -58.5t42 -31.5t54.5 -9.5t55 9.5t42.5 31.5t27.5 58.5t10 89.5v376h112v-367q0 -81 -17.5 -137.5t-49.5 -92.5t-77.5 -52.5t-102.5 -16.5t-103 16.5t-78.5 52.5t-50 92.5t-17.5 137.5v367zM193 924h266v-58h-266v58zM233 708
q-23 0 -38 15t-15 38t15 38.5t38 15.5t38.5 -15.5t15.5 -38.5t-15.5 -38t-38.5 -15zM419 708q-23 0 -38.5 15t-15.5 38t15.5 38.5t38.5 15.5t38 -15.5t15 -38.5t-15 -38t-38 -15z" />
    <glyph glyph-name="uni01D6" unicode="&#x1d6;" horiz-adv-x="556" 
d="M68 491h115v-293q0 -61 18 -86t58 -25q32 0 56.5 16t52.5 52v336h115v-491h-94l-9 72h-3q-32 -38 -69.5 -61t-88.5 -23q-79 0 -115 50.5t-36 144.5v308zM186 579q-23 0 -38 15.5t-15 38.5t15 38t38 15t38.5 -15t15.5 -38t-15.5 -38.5t-38.5 -15.5zM372 579
q-23 0 -38.5 15.5t-15.5 38.5t15.5 38t38.5 15t38 -15t15 -38t-15 -38.5t-38 -15.5zM148 811h261v-58h-261v58z" />
    <glyph glyph-name="uni01D7" unicode="&#x1d7;" horiz-adv-x="652" 
d="M78 654h116v-376q0 -53 9.5 -89.5t27 -58.5t42 -31.5t54.5 -9.5t55 9.5t42.5 31.5t27.5 58.5t10 89.5v376h112v-367q0 -81 -17.5 -137.5t-49.5 -92.5t-77.5 -52.5t-102.5 -16.5t-103 16.5t-78.5 52.5t-50 92.5t-17.5 137.5v367zM348 962h123l-115 -116h-93zM233 708
q-23 0 -38 15t-15 38t15 38.5t38 15.5t38.5 -15.5t15.5 -38.5t-15.5 -38t-38.5 -15zM419 708q-23 0 -38.5 15t-15.5 38t15.5 38.5t38.5 15.5t38 -15.5t15 -38.5t-15 -38t-38 -15z" />
    <glyph glyph-name="uni01D8" unicode="&#x1d8;" horiz-adv-x="556" 
d="M68 491h115v-293q0 -61 18 -86t58 -25q32 0 56.5 16t52.5 52v336h115v-491h-94l-9 72h-3q-32 -38 -69.5 -61t-88.5 -23q-79 0 -115 50.5t-36 144.5v308zM301 836h103l-109 -107h-76zM186 579q-23 0 -38 15.5t-15 38.5t15 38t38 15t38.5 -15t15.5 -38t-15.5 -38.5
t-38.5 -15.5zM372 579q-23 0 -38.5 15.5t-15.5 38.5t15.5 38t38.5 15t38 -15t15 -38t-15 -38.5t-38 -15.5z" />
    <glyph glyph-name="uni01D9" unicode="&#x1d9;" horiz-adv-x="652" 
d="M78 654h116v-376q0 -53 9.5 -89.5t27 -58.5t42 -31.5t54.5 -9.5t55 9.5t42.5 31.5t27.5 58.5t10 89.5v376h112v-367q0 -81 -17.5 -137.5t-49.5 -92.5t-77.5 -52.5t-102.5 -16.5t-103 16.5t-78.5 52.5t-50 92.5t-17.5 137.5v367zM233 708q-23 0 -38 15t-15 38t15 38.5
t38 15.5t38.5 -15.5t15.5 -38.5t-15.5 -38t-38.5 -15zM419 708q-23 0 -38.5 15t-15.5 38t15.5 38.5t38.5 15.5t38 -15.5t15 -38.5t-15 -38t-38 -15zM478 962l-96 -116h-112l-96 116h90l60 -64h4l60 64h90z" />
    <glyph glyph-name="uni01DA" unicode="&#x1da;" horiz-adv-x="556" 
d="M68 491h115v-293q0 -61 18 -86t58 -25q32 0 56.5 16t52.5 52v336h115v-491h-94l-9 72h-3q-32 -38 -69.5 -61t-88.5 -23q-79 0 -115 50.5t-36 144.5v308zM142 836h81l54 -61h4l54 61h81l-88 -107h-98zM186 579q-23 0 -38 15.5t-15 38.5t15 38t38 15t38.5 -15t15.5 -38
t-15.5 -38.5t-38.5 -15.5zM372 579q-23 0 -38.5 15.5t-15.5 38.5t15.5 38t38.5 15t38 -15t15 -38t-15 -38.5t-38 -15.5z" />
    <glyph glyph-name="uni01DB" unicode="&#x1db;" horiz-adv-x="652" 
d="M78 654h116v-376q0 -53 9.5 -89.5t27 -58.5t42 -31.5t54.5 -9.5t55 9.5t42.5 31.5t27.5 58.5t10 89.5v376h112v-367q0 -81 -17.5 -137.5t-49.5 -92.5t-77.5 -52.5t-102.5 -16.5t-103 16.5t-78.5 52.5t-50 92.5t-17.5 137.5v367zM389 846h-93l-115 116h123zM419 708
q-23 0 -38.5 15t-15.5 38t15.5 38.5t38.5 15.5t38 -15.5t15 -38.5t-15 -38t-38 -15zM233 708q-23 0 -38 15t-15 38t15 38.5t38 15.5t38.5 -15.5t15.5 -38.5t-15.5 -38t-38.5 -15z" />
    <glyph glyph-name="uni01DC" unicode="&#x1dc;" horiz-adv-x="556" 
d="M68 491h115v-293q0 -61 18 -86t58 -25q32 0 56.5 16t52.5 52v336h115v-491h-94l-9 72h-3q-32 -38 -69.5 -61t-88.5 -23q-79 0 -115 50.5t-36 144.5v308zM339 729h-76l-109 107h103zM372 579q-23 0 -38.5 15.5t-15.5 38.5t15.5 38t38.5 15t38 -15t15 -38t-15 -38.5
t-38 -15.5zM186 579q-23 0 -38 15.5t-15 38.5t15 38t38 15t38.5 -15t15.5 -38t-15.5 -38.5t-38.5 -15.5z" />
    <glyph glyph-name="Gcaron" unicode="&#x1e6;" horiz-adv-x="624" 
d="M47 325q0 80 24 143.5t66 107.5t99 67t123 23q34 0 63 -7t53 -18.5t44 -26.5t35 -31l-64 -72q-25 24 -54.5 39t-75.5 15q-44 0 -79.5 -16.5t-61 -47t-39.5 -74.5t-14 -99q0 -112 51 -175.5t150 -63.5q27 0 52 7.5t41 21.5v141h-123v95h227v-288q-34 -32 -89 -55t-122 -23
q-65 0 -121 22t-97 65t-64.5 106t-23.5 144zM511 820l-96 -116h-112l-96 116h90l60 -64h4l60 64h90z" />
    <glyph glyph-name="gcaron" unicode="&#x1e7;" horiz-adv-x="520" 
d="M136 -72q0 -33 33.5 -51.5t92.5 -18.5q60 0 96.5 23.5t36.5 55.5q0 29 -22.5 39t-64.5 10h-67q-40 0 -67 7q-38 -29 -38 -65zM40 -89q0 31 18 57.5t52 47.5v4q-19 12 -31.5 32t-12.5 50q0 29 16.5 52.5t37.5 38.5v4q-25 19 -44.5 52.5t-19.5 77.5q0 42 16 75t42.5 55.5
t61.5 34t74 11.5q20 0 38.5 -3.5t33.5 -8.5h176v-85h-90q12 -14 20 -35.5t8 -47.5q0 -41 -14.5 -72t-39.5 -52t-59 -32t-73 -11q-16 0 -33 3t-34 10q-11 -10 -17.5 -20t-6.5 -27q0 -21 17.5 -33t62.5 -12h87q89 0 134.5 -28.5t45.5 -92.5q0 -36 -18.5 -68t-52.5 -55
t-82.5 -36.5t-108.5 -13.5q-44 0 -81.5 8t-64.5 24t-42.5 40t-15.5 56zM250 228q35 0 60 25.5t25 73.5q0 46 -24.5 71.5t-60.5 25.5t-61 -25t-25 -72q0 -48 25 -73.5t61 -25.5zM104 719h80l60 -85h4l60 85h80l-96 -146h-92z" />
    <glyph glyph-name="uni01EA" unicode="&#x1ea;" horiz-adv-x="671" 
d="M258 -127q0 36 18.5 66t43.5 50q-63 3 -113.5 28.5t-86 69.5t-54.5 105.5t-19 137.5q0 79 21 141.5t59.5 105.5t91.5 66t117 23t117 -23t91 -66t59 -105.5t21 -141.5q0 -68 -14 -121t-40.5 -93.5t-64.5 -70t-87 -51.5q-39 -17 -56.5 -43t-17.5 -49q0 -22 14 -32t31 -10
q11 0 20.5 4t17.5 10l28 -60q-17 -14 -43 -23t-49 -9q-45 0 -75 23t-30 68zM336 89q38 0 69.5 17t53.5 48.5t34 76t12 99.5q0 110 -46 172.5t-123 62.5q-78 0 -124 -62.5t-46 -172.5q0 -55 12 -99.5t34.5 -76t53.5 -48.5t70 -17z" />
    <glyph glyph-name="uni01EB" unicode="&#x1eb;" horiz-adv-x="549" 
d="M198 -120q0 19 5.5 35.5t13.5 30.5t17.5 25t18.5 19q-43 4 -81.5 23t-67.5 51.5t-46 78t-17 102.5q0 61 19 109t51.5 81t74.5 50.5t88 17.5t88.5 -17.5t74.5 -50.5t51.5 -81t19.5 -109q0 -50 -11.5 -88.5t-33 -68.5t-51 -52t-65.5 -38q-35 -17 -52 -42.5t-17 -50.5
q0 -22 13.5 -32t30.5 -10q20 0 38 13l26 -54q-17 -14 -42.5 -22t-47.5 -8q-41 0 -69.5 22t-28.5 66zM159 245q0 -74 30.5 -118.5t84.5 -44.5t85 44.5t31 118.5q0 75 -31 119.5t-85 44.5t-84.5 -44.5t-30.5 -119.5z" />
    <glyph glyph-name="uni0218" unicode="&#x218;" horiz-adv-x="542" 
d="M104 163q35 -33 80 -53.5t91 -20.5q55 0 84.5 23t29.5 61q0 20 -7.5 34t-21 24.5t-32.5 19.5t-41 18l-89 39q-24 10 -48 25t-42.5 36t-30 49t-11.5 64q0 39 16.5 72.5t45.5 58.5t69 39t88 14q58 0 111 -22.5t91 -60.5l-60 -74q-31 26 -65.5 41t-76.5 15
q-47 0 -74.5 -20.5t-27.5 -56.5q0 -19 8.5 -32.5t23 -24t33.5 -19t39 -16.5l88 -37q29 -12 53.5 -28t42 -37t27 -48.5t9.5 -63.5q0 -40 -16 -75t-46.5 -61.5t-74 -42t-98.5 -15.5q-66 0 -127 25t-108 71zM243 -45q59 -7 84 -26t25 -54q0 -24 -13 -41t-35.5 -29t-51.5 -19
t-61 -9l-10 50q38 5 62 14t24 27q0 17 -12.5 26.5t-35.5 14.5l24 46v0z" />
    <glyph glyph-name="uni0219" unicode="&#x219;" horiz-adv-x="431" 
d="M78 130q33 -26 65.5 -40.5t70.5 -14.5q40 0 59 16.5t19 42.5q0 15 -9 26.5t-24 20.5t-34 16.5t-38 15.5q-24 9 -49 21t-44.5 29t-32 39.5t-12.5 53.5q0 65 48 106t131 41q51 0 92 -18t71 -41l-53 -70q-26 19 -52.5 30.5t-55.5 11.5q-37 0 -54.5 -15.5t-17.5 -38.5
q0 -14 8.5 -24.5t22.5 -19t32.5 -15.5t38.5 -14q25 -9 50 -20.5t45.5 -28.5t33 -41.5t12.5 -58.5q0 -32 -12.5 -59.5t-36.5 -48t-60 -32.5t-82 -12q-51 0 -100.5 19.5t-85.5 48.5zM195 -45q59 -7 84 -26t25 -54q0 -24 -13 -41t-35.5 -29t-51.5 -19t-61 -9l-10 50q38 5 62 14
t24 27q0 17 -12.5 26.5t-35.5 14.5l24 46v0z" />
    <glyph glyph-name="uni021A" unicode="&#x21a;" horiz-adv-x="543" 
d="M214 556h-189v98h493v-98h-188v-556h-116v556zM239 -45q59 -7 84 -26t25 -54q0 -24 -13 -41t-35.5 -29t-51.5 -19t-61 -9l-10 50q38 5 62 14t24 27q0 17 -12.5 26.5t-35.5 14.5l24 46v0z" />
    <glyph glyph-name="uni021B" unicode="&#x21b;" horiz-adv-x="361" 
d="M90 400h-70v86l76 5l14 134h96v-134h125v-91h-125v-234q0 -86 69 -86q13 0 26.5 3t24.5 8l20 -85q-20 -7 -45.5 -12.5t-54.5 -5.5q-43 0 -72.5 13t-48 36.5t-27 56t-8.5 72.5v234zM192 -45q59 -7 84 -26t25 -54q0 -24 -13 -41t-35.5 -29t-51.5 -19t-61 -9l-10 50
q38 5 62 14t24 27q0 17 -12.5 26.5t-35.5 14.5l24 46v0z" />
    <glyph glyph-name="uni0237" unicode="&#x237;" horiz-adv-x="263" 
d="M74 491h116v-516q0 -39 -8 -72t-26.5 -57.5t-48.5 -38t-73 -13.5q-27 0 -46.5 4t-33.5 9l22 86q10 -3 20.5 -5.5t21.5 -2.5q33 0 44.5 22.5t11.5 65.5v518z" />
    <glyph glyph-name="uni0243" unicode="&#x243;" horiz-adv-x="616" 
d="M318 84q72 0 112 30.5t40 91.5q0 58 -39.5 85t-112.5 27h-98v-83h138v-59h-138v-92h98zM220 389h82q69 0 101 25t32 71q0 45 -33 65t-97 20h-85v-181zM434 359q71 -13 109 -52.5t38 -108.5q0 -51 -19 -88t-52.5 -61.5t-79.5 -36.5t-100 -12h-226v176h-76v54l76 5v419h209
q50 0 93 -8.5t74 -27t48.5 -49t17.5 -73.5q0 -45 -27 -81.5t-85 -51.5v-4z" />
    <glyph glyph-name="uni0251" unicode="&#x251;" horiz-adv-x="564" 
d="M162 246q0 -80 28.5 -121.5t82.5 -41.5q55 0 103 55v229q-26 23 -50.5 32t-49.5 9q-48 0 -81 -42t-33 -120zM43 245q0 60 18 108t47 81t67 51t79 18q39 0 70.5 -14.5t62.5 -45.5h3l9 48h92v-491h-95l-8 53h-4q-27 -27 -63 -46t-76 -19q-93 0 -147.5 67.5t-54.5 189.5z
" />
    <glyph glyph-name="uni0259" unicode="&#x259;" horiz-adv-x="507" 
d="M37 225q0 34 5 54h312q-7 65 -40 100t-90 35q-32 0 -60.5 -10t-56.5 -27l-39 71q37 26 81.5 40.5t93.5 14.5q48 0 88.5 -17.5t70.5 -50.5t47 -81t17 -108t-17.5 -108t-48 -81t-71 -51t-85.5 -18q-50 0 -88.5 17t-64.5 48.5t-40 75t-14 96.5zM136 206q0 -63 27 -96t78 -33
q46 0 76 32t38 97h-219z" />
    <glyph glyph-name="uni0261" unicode="&#x261;" horiz-adv-x="571" 
d="M120 -73q35 -22 71.5 -31.5t68.5 -9.5q61 0 89 28t30 76l3 76q-26 -25 -60.5 -41t-73.5 -16q-46 0 -83 17.5t-63.5 49.5t-40.5 77t-14 101q0 57 18 103t47 78.5t67 50t78 17.5q39 0 70.5 -14t60.5 -43h4l8 45h94v-501q0 -94 -60.5 -144.5t-173.5 -50.5q-43 0 -91 14
t-89 40zM277 103q29 0 53 13.5t49 42.5v208q-25 23 -50 32t-50 9q-24 0 -44.5 -10.5t-36.5 -30.5t-25 -48.5t-9 -63.5q0 -72 29.5 -112t83.5 -40z" />
    <glyph glyph-name="h.sups" unicode="&#x2b0;" horiz-adv-x="375" 
d="M47 726h83v-120l-5 -63q19 20 46 35.5t60 15.5q56 0 79.5 -36.5t23.5 -94.5v-203h-84v192q0 35 -9 53t-41 18q-17 0 -33.5 -9.5t-36.5 -29.5v-224h-83v466z" />
    <glyph glyph-name="j.sups" unicode="&#x2b2;" horiz-adv-x="180" 
d="M25 120q-20 0 -32 2t-23 6l16 63q5 -2 11.5 -3.5t15.5 -1.5q21 0 28.5 13.5t7.5 42.5v344h83v-340q0 -55 -24 -90.5t-83 -35.5zM91 639q-23 0 -37 13t-14 33t14 33t37 13q22 0 36.5 -13t14.5 -33t-14.5 -33t-36.5 -13z" />
    <glyph glyph-name="r.sups" unicode="&#x2b3;" horiz-adv-x="256" 
d="M47 586h67l8 -58h2q39 66 93 66q14 0 23.5 -2.5t16.5 -5.5l-15 -72q-7 2 -16 3.5t-18 1.5q-20 0 -41 -14t-36 -49v-196h-84v326z" />
    <glyph glyph-name="w.sups" unicode="&#x2b7;" horiz-adv-x="505" 
d="M16 586h84l36 -164l17 -95h4l19 95l43 164h70l45 -164l20 -95h4l18 95l36 164h77l-82 -326h-98l-36 145l-19 91h-2l-18 -91l-36 -145h-96z" />
    <glyph glyph-name="y.sups" unicode="&#x2b8;" horiz-adv-x="336" 
d="M44 201q14 -5 24 -5q25 0 40.5 15t23.5 38l6 17l-130 320h84l54 -153q8 -23 14 -45.5t14 -47.5h4q5 24 12 47l14 46l44 153h80l-115 -335q-11 -28 -23.5 -50.5t-29 -38t-37.5 -23.5t-49 -8q-14 0 -24 1.5t-21 4.5l15 64v0z" />
    <glyph glyph-name="uni02BB" unicode="&#x2bb;" horiz-adv-x="275" 
d="M208 638q-42 -24 -62.5 -52.5t-20.5 -73.5q3 1 9 1q27 0 46.5 -16.5t19.5 -45.5q0 -32 -18.5 -50.5t-47.5 -18.5q-38 0 -58 29t-20 82q0 131 124 196z" />
    <glyph glyph-name="uni02BC" unicode="&#x2bc;" horiz-adv-x="275" 
d="M67 442q42 24 62.5 52.5t20.5 73.5q-3 -1 -9 -1q-26 0 -45.5 16.5t-19.5 45.5q0 32 18 50.5t47 18.5q38 0 58.5 -29t20.5 -82q0 -131 -125 -196z" />
    <glyph glyph-name="uni02BE" unicode="&#x2be;" horiz-adv-x="157" 
d="M28 590q33 0 46.5 14.5t13.5 37.5t-13.5 37.5t-46.5 14.5v46q60 2 90 -25.5t30 -72.5t-30 -72t-90 -25v45z" />
    <glyph glyph-name="uni02BF" unicode="&#x2bf;" horiz-adv-x="165" 
d="M136 694q-33 0 -46.5 -14.5t-13.5 -37.5t13.5 -37.5t46.5 -14.5v-45q-60 -2 -90 25t-30 72t30 72.5t90 25.5v-46z" />
    <glyph glyph-name="circumflex" unicode="&#x2c6;" horiz-adv-x="549" 
d="M228 719h92l96 -146h-80l-60 85h-4l-60 -85h-80z" />
    <glyph glyph-name="caron" unicode="&#x2c7;" horiz-adv-x="549" 
d="M132 719h80l60 -85h4l60 85h80l-96 -146h-92z" />
    <glyph glyph-name="uni02C8" unicode="&#x2c8;" horiz-adv-x="131" 
d="M18 728h95l-6 -192h-83z" />
    <glyph glyph-name="uni02C9" unicode="&#x2c9;" horiz-adv-x="293" 
d="M16 672h260v-76h-260v76z" />
    <glyph glyph-name="uni02CA" unicode="&#x2ca;" horiz-adv-x="230" 
d="M126 573h-86l90 146h114z" />
    <glyph glyph-name="uni02CB" unicode="&#x2cb;" horiz-adv-x="230" 
d="M-16 719h114l90 -146h-86z" />
    <glyph glyph-name="uni02CC" unicode="&#x2cc;" horiz-adv-x="131" 
d="M107 -68l6 -192h-95l6 192h83z" />
    <glyph glyph-name="breve" unicode="&#x2d8;" horiz-adv-x="549" 
d="M274 575q-34 0 -58.5 11.5t-40.5 30t-24.5 42.5t-9.5 49h67q4 -27 19.5 -47.5t46.5 -20.5t46.5 20.5t19.5 47.5h67q-2 -25 -10 -49t-24 -42.5t-40.5 -30t-58.5 -11.5z" />
    <glyph glyph-name="dotaccent" unicode="&#x2d9;" horiz-adv-x="549" 
d="M274 577q-30 0 -49 18.5t-19 47.5t19 47t49 18t49 -18t19 -47t-19 -47.5t-49 -18.5z" />
    <glyph glyph-name="ring" unicode="&#x2da;" horiz-adv-x="549" 
d="M274 545q-46 0 -74.5 26.5t-28.5 70.5q0 45 28.5 71.5t74.5 26.5t74.5 -26.5t28.5 -71.5q0 -44 -28.5 -70.5t-74.5 -26.5zM274 591q19 0 31.5 14t12.5 37t-12.5 37.5t-31.5 14.5t-31.5 -14.5t-12.5 -37.5t12.5 -37t31.5 -14z" />
    <glyph glyph-name="ogonek" unicode="&#x2db;" horiz-adv-x="549" 
d="M198 -120q0 21 7 39.5t17.5 34.5t22.5 28.5t23 20.5h71q-61 -47 -61 -98q0 -22 13.5 -32t30.5 -10q22 0 38 13l26 -54q-17 -14 -43 -22t-47 -8q-42 0 -70 22t-28 66z" />
    <glyph glyph-name="tilde" unicode="&#x2dc;" horiz-adv-x="549" 
d="M121 577q6 57 30.5 89t62.5 32q19 0 35.5 -7.5t30.5 -16.5t26 -16.5t24 -7.5q26 0 36 48h61q-6 -57 -30.5 -89t-62.5 -32q-20 0 -36 7.5t-29.5 16.5t-26 16.5t-24.5 7.5q-26 0 -36 -48h-61v0z" />
    <glyph glyph-name="hungarumlaut" unicode="&#x2dd;" horiz-adv-x="549" 
d="M232 719h94l-91 -147h-73zM391 719h95l-92 -147h-73z" />
    <glyph glyph-name="l.sups" unicode="&#x2e1;" horiz-adv-x="184" 
d="M47 726h83v-380q0 -15 4.5 -21t12.5 -6h5.5t7.5 2l11 -61q-8 -4 -18 -6t-26 -2q-45 0 -62.5 26.5t-17.5 71.5v376z" />
    <glyph glyph-name="s.sups" unicode="&#x2e2;" horiz-adv-x="290" 
d="M54 349q23 -17 45.5 -26t45.5 -9q24 0 36.5 10t12.5 26q0 18 -21.5 27.5t-48.5 20.5q-16 6 -32.5 14.5t-29.5 20t-21 26.5t-8 36q0 42 32 70.5t88 28.5q37 0 64.5 -12t48.5 -28l-39 -50q-18 12 -35 20t-37 8q-22 0 -33 -9.5t-11 -23.5q0 -9 6 -15.5t15.5 -12t22 -10
t25.5 -9.5q16 -6 32.5 -13.5t29.5 -18.5t21.5 -27t8.5 -38q0 -45 -34 -74t-95 -29q-34 0 -67.5 12.5t-58.5 31.5z" />
    <glyph glyph-name="x.sups" unicode="&#x2e3;" horiz-adv-x="328" 
d="M114 430l-98 156h90l34 -59l29 -51h4l24 51l29 59h88l-98 -166l103 -160h-89l-36 60l-33 53h-4l-29 -53l-33 -60h-87z" />
    <glyph glyph-name="uni0300" unicode="&#x300;" 
d="M-130 719h114l90 -146h-86z" />
    <glyph glyph-name="uni0301" unicode="&#x301;" 
d="M12 573h-86l90 146h114z" />
    <glyph glyph-name="uni0302" unicode="&#x302;" 
d="M-46 719h92l96 -146h-80l-60 85h-4l-60 -85h-80z" />
    <glyph glyph-name="uni0303" unicode="&#x303;" 
d="M-153 577q6 57 30.5 89t62.5 32q19 0 35.5 -7.5t30.5 -16.5t26 -16.5t24 -7.5q26 0 36 48h61q-6 -57 -30.5 -89t-62.5 -32q-20 0 -36 7.5t-29.5 16.5t-26 16.5t-24.5 7.5q-26 0 -36 -48h-61v0z" />
    <glyph glyph-name="uni0304" unicode="&#x304;" 
d="M-130 672h260v-76h-260v76z" />
    <glyph glyph-name="uni0306" unicode="&#x306;" 
d="M0 575q-34 0 -58.5 11.5t-40.5 30t-24.5 42.5t-9.5 49h67q4 -27 19.5 -47.5t46.5 -20.5t46.5 20.5t19.5 47.5h67q-2 -25 -10 -49t-24 -42.5t-40.5 -30t-58.5 -11.5z" />
    <glyph glyph-name="uni0307" unicode="&#x307;" 
d="M0 577q-30 0 -49 18.5t-19 47.5t19 47t49 18t49 -18t19 -47t-19 -47.5t-49 -18.5z" />
    <glyph glyph-name="uni0308" unicode="&#x308;" 
d="M-93 579q-26 0 -42.5 17t-16.5 43q0 25 16.5 42t42.5 17t43 -17t17 -42q0 -26 -17 -43t-43 -17zM93 579q-26 0 -43 17t-17 43q0 25 17 42t43 17t42.5 -17t16.5 -42q0 -26 -16.5 -43t-42.5 -17z" />
    <glyph glyph-name="uni0309" unicode="&#x309;" 
d="M-42 603q21 5 35.5 13t14.5 25t-19 26.5t-62 11.5l13 61q80 -3 117 -25t37 -62q0 -24 -10.5 -41t-27.5 -28.5t-40 -18.5t-48 -10z" />
    <glyph glyph-name="uni030A" unicode="&#x30a;" 
d="M0 545q-46 0 -74.5 26.5t-28.5 70.5q0 45 28.5 71.5t74.5 26.5t74.5 -26.5t28.5 -71.5q0 -44 -28.5 -70.5t-74.5 -26.5zM0 591q19 0 31.5 14t12.5 37t-12.5 37.5t-31.5 14.5t-31.5 -14.5t-12.5 -37.5t12.5 -37t31.5 -14z" />
    <glyph glyph-name="uni030B" unicode="&#x30b;" 
d="M-42 719h94l-91 -147h-73zM117 719h95l-92 -147h-73z" />
    <glyph glyph-name="uni030C" unicode="&#x30c;" 
d="M-142 719h80l60 -85h4l60 85h80l-96 -146h-92z" />
    <glyph glyph-name="uni030F" unicode="&#x30f;" 
d="M112 572h-73l-91 147h94zM-47 572h-73l-92 147h95z" />
    <glyph glyph-name="uni0312" unicode="&#x312;" 
d="M50 706q-57 -25 -61 -66q3 1 9 1q18 0 32.5 -11.5t14.5 -33.5q0 -25 -13.5 -38t-33.5 -13q-58 0 -58 76q0 38 21 70.5t69 52.5z" />
    <glyph glyph-name="uni0313" unicode="&#x313;" 
d="M-52 581q56 24 60 66q-3 -1 -8 -1q-18 0 -32.5 11.5t-14.5 33.5q0 25 13.5 38t33.5 13q58 0 58 -76q0 -38 -21.5 -71t-68.5 -53z" />
    <glyph glyph-name="uni031B" unicode="&#x31b;" 
d="M-9 481q35 6 55 19.5t20 44.5q0 13 -4.5 24t-10.5 20l80 37q11 -14 18.5 -32.5t7.5 -40.5q0 -30 -12.5 -52t-33.5 -36.5t-49.5 -22.5t-61.5 -11z" />
    <glyph glyph-name="uni0323" unicode="&#x323;" 
d="M0 -216q-30 0 -49 18.5t-19 47.5t19 47t49 18t49 -18t19 -47t-19 -47.5t-49 -18.5z" />
    <glyph glyph-name="uni0324" unicode="&#x324;" 
d="M-93 -208q-26 0 -42.5 17t-16.5 42q0 26 16.5 43t42.5 17t43 -17t17 -43q0 -25 -17 -42t-43 -17zM93 -208q-26 0 -43 17t-17 42q0 26 17 43t43 17t42.5 -17t16.5 -43q0 -25 -16.5 -42t-42.5 -17z" />
    <glyph glyph-name="uni0326" unicode="&#x326;" 
d="M-32 -45q59 -7 84 -26t25 -54q0 -24 -13 -41t-35.5 -29t-51.5 -19t-61 -9l-10 50q38 5 62 14t24 27q0 17 -12.5 26.5t-35.5 14.5l24 46v0z" />
    <glyph glyph-name="uni0327" unicode="&#x327;" 
d="M-29 3h70l-23 -49q25 -9 42 -25.5t17 -47.5q0 -24 -13 -41t-35.5 -29t-51.5 -19t-61 -9l-10 50q38 5 62 15.5t24 30.5q0 16 -14.5 27t-46.5 19z" />
    <glyph glyph-name="uni0328" unicode="&#x328;" 
d="M-76 -120q0 21 7 39.5t17.5 34.5t22.5 28.5t23 20.5h71q-61 -47 -61 -98q0 -22 13.5 -32t30.5 -10q22 0 38 13l26 -54q-17 -14 -43 -22t-47 -8q-42 0 -70 22t-28 66z" />
    <glyph glyph-name="uni032E" unicode="&#x32e;" 
d="M0 -208q-34 0 -58.5 11.5t-40.5 30t-24.5 42.5t-9.5 49h67q4 -27 19.5 -47t46.5 -20t46.5 20t19.5 47h67q-2 -25 -10 -49t-24 -42.5t-40.5 -30t-58.5 -11.5z" />
    <glyph glyph-name="uni0331" unicode="&#x331;" 
d="M130 -180h-261v76h261v-76z" />
    <glyph glyph-name="pi" unicode="&#x3c0;" horiz-adv-x="584" 
d="M107 399h-86v87l72 5h462v-92h-71v-269q0 -24 9 -36t23 -12q10 0 22 4l15 -86q-26 -12 -66 -12q-66 0 -92 40t-26 108v263h-148v-399h-114v399z" />
    <glyph glyph-name="a.sups" unicode="&#x1d43;" horiz-adv-x="352" 
d="M133 252q-46 0 -73 27.5t-27 69.5q0 53 45.5 81.5t147.5 37.5q-2 27 -14 43t-42 16q-23 0 -47.5 -9.5t-47.5 -22.5l-30 55q29 18 64.5 31t74.5 13q125 0 125 -142v-192h-67l-8 35h-4q-20 -18 -44 -30.5t-53 -12.5zM160 316q17 0 33 8.5t33 24.5v70q-63 -7 -87.5 -23.5
t-24.5 -39.5q0 -40 46 -40z" />
    <glyph glyph-name="b.sups" unicode="&#x1d47;" horiz-adv-x="380" 
d="M47 726h83v-120l-3 -54q20 18 43.5 30t49.5 12q62 0 96 -45t34 -120q0 -42 -11.5 -75t-30.5 -55.5t-44.5 -34.5t-52.5 -12q-23 0 -46 10.5t-43 31.5h-4l-7 -34h-64v466zM130 344q17 -14 33 -19.5t31 -5.5q29 0 50 27t21 82q0 48 -16.5 73t-50.5 25q-33 0 -68 -35v-147z
" />
    <glyph glyph-name="d.sups" unicode="&#x1d48;" horiz-adv-x="380" 
d="M166 252q-63 0 -99.5 46t-36.5 131q0 38 12 68.5t31.5 52t44 33t50.5 11.5t47 -9.5t39 -26.5l-4 54v114h83v-466h-68l-7 33h-3q-18 -17 -40 -29t-49 -12zM188 319q31 0 62 35v146q-17 15 -32.5 21t-31.5 6q-29 0 -50 -26t-21 -72q0 -110 73 -110z" />
    <glyph glyph-name="e.sups" unicode="&#x1d49;" horiz-adv-x="341" 
d="M190 252q-35 0 -64.5 11.5t-52 33.5t-35 53.5t-12.5 72.5q0 39 12.5 70.5t33.5 54t49 34.5t59 12q37 0 63.5 -13.5t42.5 -35.5t23.5 -49.5t7.5 -55.5q0 -12 -1 -19.5t-3 -18.5h-207q5 -43 30.5 -64.5t63.5 -21.5q42 0 77 23l29 -51q-25 -17 -54.5 -26.5t-61.5 -9.5z
M246 452q0 14 -3.5 28t-11 25t-20 17.5t-30.5 6.5q-30 0 -50.5 -19.5t-25.5 -57.5h141z" />
    <glyph glyph-name="g.sups" unicode="&#x1d4d;" horiz-adv-x="352" 
d="M95 215q0 -21 21.5 -32.5t59.5 -11.5t61.5 14.5t23.5 34.5q0 17 -14 23.5t-41 6.5h-43q-10 0 -21.5 0.5t-22.5 3.5q-24 -19 -24 -39zM26 202q0 41 46 67v4q-13 8 -21 21t-8 33q0 18 10.5 33.5t25.5 26.5v4q-17 12 -30.5 34t-13.5 51q0 28 11 50t29 37t42 23t51 8
q29 0 52 -9h116v-62h-57q7 -8 11.5 -22t4.5 -28q0 -27 -10 -48t-27.5 -35t-40.5 -21t-49 -7q-10 0 -20.5 1.5t-22.5 6.5q-7 -6 -11 -12.5t-4 -16.5q0 -14 11.5 -20.5t40.5 -6.5h58q60 0 90.5 -18.5t30.5 -62.5q0 -49 -47.5 -82t-131.5 -33q-29 0 -54 5t-43 15.5t-28.5 26
t-10.5 37.5zM168 414q23 0 38.5 16.5t15.5 45.5t-15.5 44.5t-38.5 15.5q-24 0 -39.5 -15.5t-15.5 -44.5t15.5 -45.5t39.5 -16.5z" />
    <glyph glyph-name="k.sups" unicode="&#x1d4f;" horiz-adv-x="354" 
d="M47 726h83v-284h4l114 144h91l-116 -136l127 -190h-91l-83 136l-46 -55v-81h-83v466z" />
    <glyph glyph-name="m.sups" unicode="&#x1d50;" horiz-adv-x="568" 
d="M47 586h67l7 -45h3q20 22 43.5 37.5t56.5 15.5q67 0 91 -58q22 23 48 40.5t59 17.5q54 0 78.5 -36t24.5 -95v-203h-83v192q0 35 -10.5 53t-39.5 18q-27 0 -64 -38v-225h-84v192q0 35 -10.5 53t-39.5 18q-26 0 -64 -38v-225h-83v326z" />
    <glyph glyph-name="o.sups" unicode="&#x1d52;" horiz-adv-x="369" 
d="M184 252q-32 0 -60 11.5t-50 33.5t-34.5 53.5t-12.5 71.5q0 41 12.5 73t34.5 54t50 33.5t60 11.5q31 0 59.5 -11.5t50.5 -33.5t34.5 -54t12.5 -73q0 -40 -12.5 -71.5t-34.5 -53.5t-50.5 -33.5t-59.5 -11.5zM184 319q35 0 53.5 28.5t18.5 74.5q0 48 -18.5 76.5t-53.5 28.5
t-53.5 -28.5t-18.5 -76.5q0 -46 18.5 -74.5t53.5 -28.5z" />
    <glyph glyph-name="p.sups" unicode="&#x1d56;" horiz-adv-x="380" 
d="M47 586h66l7 -36h3q19 17 44.5 30.5t52.5 13.5q62 0 96 -45t34 -120q0 -42 -11.5 -75t-30.5 -55.5t-44.5 -34.5t-52.5 -12q-46 0 -85 36l4 -64v-99h-83v461zM130 344q17 -14 33 -19.5t31 -5.5q29 0 50 27t21 82q0 48 -16.5 73t-50.5 25q-33 0 -68 -35v-147z" />
    <glyph glyph-name="t.sups" unicode="&#x1d57;" horiz-adv-x="246" 
d="M60 520h-46v62l50 4l10 88h70v-88h82v-66h-82v-146q0 -56 45 -56q8 0 16.5 1t16.5 5l16 -60q-14 -5 -32 -8.5t-39 -3.5q-59 0 -83 34t-24 88v146z" />
    <glyph glyph-name="u.sups" unicode="&#x1d58;" horiz-adv-x="377" 
d="M148 252q-56 0 -80 35.5t-24 93.5v205h84v-194q0 -34 9 -52t41 -18q34 0 70 39v225h83v-326h-66l-9 43h-3q-19 -20 -45.5 -35.5t-59.5 -15.5z" />
    <glyph glyph-name="v.sups" unicode="&#x1d5b;" horiz-adv-x="338" 
d="M8 586h83l49 -164l29 -99h3l29 99l49 164h80l-112 -326h-97z" />
    <glyph glyph-name="c.sups" unicode="&#x1d9c;" horiz-adv-x="310" 
d="M186 252q-35 0 -64 11.5t-50 33t-33 53.5t-12 73q0 40 13 72t35.5 54t52 33.5t61.5 11.5q37 0 62 -11t39 -24l-38 -54q-13 11 -26 16.5t-30 5.5q-36 0 -60 -29t-24 -75q0 -47 23 -75.5t60 -28.5q23 0 38.5 7t27.5 18l34 -54q-17 -14 -44 -26t-65 -12z" />
    <glyph glyph-name="f.sups" unicode="&#x1da0;" horiz-adv-x="217" 
d="M221 667q-7 2 -15.5 4t-19.5 2q-41 0 -41 -57v-30h64v-65h-64v-261h-83v261h-45v61l45 4v26q0 26 6.5 49t20 40t35 27t51.5 10q35 0 62 -11z" />
    <glyph glyph-name="z.sups" unicode="&#x1dbb;" horiz-adv-x="301" 
d="M23 305l152 215h-134v66h238v-46l-152 -214h157v-66h-261v45z" />
    <glyph glyph-name="uni1E0C" unicode="&#x1e0c;" horiz-adv-x="623" 
d="M82 654h174q150 0 234.5 -81t84.5 -243q0 -81 -21.5 -143t-62 -103.5t-98.5 -62.5t-131 -21h-180v654zM248 94q100 0 154 57.5t54 178.5q0 120 -54.5 175t-153.5 55h-50v-466h50zM307 -216q-30 0 -49 18.5t-19 47.5t19 47t49 18t49 -18t19 -47t-19 -47.5t-49 -18.5z" />
    <glyph glyph-name="uni1E0D" unicode="&#x1e0d;" horiz-adv-x="564" 
d="M43 245q0 60 17.5 108t46.5 81t66.5 51t77.5 18q42 0 71 -14.5t58 -39.5l-4 79v178h115v-706h-95l-8 53h-4q-27 -27 -63 -46t-76 -19q-93 0 -147.5 67.5t-54.5 189.5zM162 246q0 -80 28.5 -121.5t82.5 -41.5q55 0 103 55v229q-26 23 -50.5 32t-49.5 9q-48 0 -81 -42
t-33 -120zM307 -216q-30 0 -49 18.5t-19 47.5t19 47t49 18t49 -18t19 -47t-19 -47.5t-49 -18.5z" />
    <glyph glyph-name="uni1E0E" unicode="&#x1e0e;" horiz-adv-x="623" 
d="M82 654h174q150 0 234.5 -81t84.5 -243q0 -81 -21.5 -143t-62 -103.5t-98.5 -62.5t-131 -21h-180v654zM248 94q100 0 154 57.5t54 178.5q0 120 -54.5 175t-153.5 55h-50v-466h50zM437 -180h-261v76h261v-76z" />
    <glyph glyph-name="uni1E0F" unicode="&#x1e0f;" horiz-adv-x="564" 
d="M43 245q0 60 17.5 108t46.5 81t66.5 51t77.5 18q42 0 71 -14.5t58 -39.5l-4 79v178h115v-706h-95l-8 53h-4q-27 -27 -63 -46t-76 -19q-93 0 -147.5 67.5t-54.5 189.5zM162 246q0 -80 28.5 -121.5t82.5 -41.5q55 0 103 55v229q-26 23 -50.5 32t-49.5 9q-48 0 -81 -42
t-33 -120zM437 -180h-261v76h261v-76z" />
    <glyph glyph-name="uni1E20" unicode="&#x1e20;" horiz-adv-x="624" 
d="M47 325q0 80 24 143.5t66 107.5t99 67t123 23q34 0 63 -7t53 -18.5t44 -26.5t35 -31l-64 -72q-25 24 -54.5 39t-75.5 15q-44 0 -79.5 -16.5t-61 -47t-39.5 -74.5t-14 -99q0 -112 51 -175.5t150 -63.5q27 0 52 7.5t41 21.5v141h-123v95h227v-288q-34 -32 -89 -55t-122 -23
q-65 0 -121 22t-97 65t-64.5 106t-23.5 144zM226 800h266v-76h-266v76z" />
    <glyph glyph-name="uni1E21" unicode="&#x1e21;" horiz-adv-x="520" 
d="M136 -72q0 -33 33.5 -51.5t92.5 -18.5q60 0 96.5 23.5t36.5 55.5q0 29 -22.5 39t-64.5 10h-67q-40 0 -67 7q-38 -29 -38 -65zM40 -89q0 31 18 57.5t52 47.5v4q-19 12 -31.5 32t-12.5 50q0 29 16.5 52.5t37.5 38.5v4q-25 19 -44.5 52.5t-19.5 77.5q0 42 16 75t42.5 55.5
t61.5 34t74 11.5q20 0 38.5 -3.5t33.5 -8.5h176v-85h-90q12 -14 20 -35.5t8 -47.5q0 -41 -14.5 -72t-39.5 -52t-59 -32t-73 -11q-16 0 -33 3t-34 10q-11 -10 -17.5 -20t-6.5 -27q0 -21 17.5 -33t62.5 -12h87q89 0 134.5 -28.5t45.5 -92.5q0 -36 -18.5 -68t-52.5 -55
t-82.5 -36.5t-108.5 -13.5q-44 0 -81.5 8t-64.5 24t-42.5 40t-15.5 56zM250 228q35 0 60 25.5t25 73.5q0 46 -24.5 71.5t-60.5 25.5t-61 -25t-25 -72q0 -48 25 -73.5t61 -25.5zM116 672h260v-76h-260v76z" />
    <glyph glyph-name="uni1E24" unicode="&#x1e24;" horiz-adv-x="660" 
d="M82 654h116v-263h264v263h116v-654h-116v290h-264v-290h-116v654zM329 -216q-30 0 -49 18.5t-19 47.5t19 47t49 18t49 -18t19 -47t-19 -47.5t-49 -18.5z" />
    <glyph glyph-name="uni1E25" unicode="&#x1e25;" horiz-adv-x="558" 
d="M73 706h115v-182l-4 -95q31 29 68.5 51.5t88.5 22.5q79 0 115 -50.5t36 -144.5v-308h-115v293q0 61 -18 86t-59 25q-32 0 -56.5 -15.5t-55.5 -45.5v-343h-115v706zM290 -216q-30 0 -49 18.5t-19 47.5t19 47t49 18t49 -18t19 -47t-19 -47.5t-49 -18.5z" />
    <glyph glyph-name="uni1E2A" unicode="&#x1e2a;" horiz-adv-x="660" 
d="M82 654h116v-263h264v263h116v-654h-116v290h-264v-290h-116v654zM329 -208q-34 0 -58.5 11.5t-40.5 30t-24.5 42.5t-9.5 49h67q4 -27 19.5 -47t46.5 -20t46.5 20t19.5 47h67q-2 -25 -10 -49t-24 -42.5t-40.5 -30t-58.5 -11.5z" />
    <glyph glyph-name="uni1E2B" unicode="&#x1e2b;" horiz-adv-x="558" 
d="M73 706h115v-182l-4 -95q31 29 68.5 51.5t88.5 22.5q79 0 115 -50.5t36 -144.5v-308h-115v293q0 61 -18 86t-59 25q-32 0 -56.5 -15.5t-55.5 -45.5v-343h-115v706zM289 -208q-34 0 -58.5 11.5t-40.5 30t-24.5 42.5t-9.5 49h67q4 -27 19.5 -47t46.5 -20t46.5 20t19.5 47
h67q-2 -25 -10 -49t-24 -42.5t-40.5 -30t-58.5 -11.5z" />
    <glyph glyph-name="uni1E36" unicode="&#x1e36;" horiz-adv-x="499" 
d="M82 654h116v-556h271v-98h-387v654zM287 -216q-30 0 -49 18.5t-19 47.5t19 47t49 18t49 -18t19 -47t-19 -47.5t-49 -18.5z" />
    <glyph glyph-name="uni1E37" unicode="&#x1e37;" horiz-adv-x="271" 
d="M73 706h115v-586q0 -21 8 -29.5t17 -8.5h7.5t10.5 2l15 -86q-23 -10 -61 -10q-62 0 -87 37t-25 101v580zM180 -216q-30 0 -49 18.5t-19 47.5t19 47t49 18t49 -18t19 -47t-19 -47.5t-49 -18.5z" />
    <glyph glyph-name="uni1E38" unicode="&#x1e38;" horiz-adv-x="499" 
d="M82 654h116v-556h271v-98h-387v654zM9 800h266v-76h-266v76zM287 -216q-30 0 -49 18.5t-19 47.5t19 47t49 18t49 -18t19 -47t-19 -47.5t-49 -18.5z" />
    <glyph glyph-name="uni1E39" unicode="&#x1e39;" horiz-adv-x="271" 
d="M73 706h115v-586q0 -21 8 -29.5t17 -8.5h7.5t10.5 2l15 -86q-23 -10 -61 -10q-62 0 -87 37t-25 101v580zM-1 888h260v-76h-260v76zM180 -216q-30 0 -49 18.5t-19 47.5t19 47t49 18t49 -18t19 -47t-19 -47.5t-49 -18.5z" />
    <glyph glyph-name="uni1E3A" unicode="&#x1e3a;" horiz-adv-x="499" 
d="M82 654h116v-556h271v-98h-387v654zM417 -180h-261v76h261v-76z" />
    <glyph glyph-name="uni1E3B" unicode="&#x1e3b;" horiz-adv-x="271" 
d="M73 706h115v-586q0 -21 8 -29.5t17 -8.5h7.5t10.5 2l15 -86q-23 -10 -61 -10q-62 0 -87 37t-25 101v580zM310 -180h-261v76h261v-76z" />
    <glyph glyph-name="uni1E42" unicode="&#x1e42;" horiz-adv-x="742" 
d="M82 654h127l118 -322l43 -124h4l43 124l115 322h128v-654h-109v299q0 23 1.5 50t3.5 54.5t5 54t5 49.5h-4l-53 -149l-113 -297h-53l-113 297l-52 149h-4q2 -23 4.5 -49.5t4.5 -54t3.5 -54.5t1.5 -50v-299h-106v654zM373 -216q-30 0 -49 18.5t-19 47.5t19 47t49 18t49 -18
t19 -47t-19 -47.5t-49 -18.5z" />
    <glyph glyph-name="uni1E43" unicode="&#x1e43;" horiz-adv-x="843" 
d="M73 491h95l8 -67h4q31 33 67.5 56t82.5 23q54 0 86.5 -23t49.5 -65q35 38 73 63t85 25q78 0 115 -50.5t37 -144.5v-308h-116v293q0 61 -18.5 86t-56.5 25q-46 0 -103 -61v-343h-115v293q0 61 -18.5 86t-57.5 25q-46 0 -103 -61v-343h-115v491zM432 -216q-30 0 -49 18.5
t-19 47.5t19 47t49 18t49 -18t19 -47t-19 -47.5t-49 -18.5z" />
    <glyph glyph-name="uni1E44" unicode="&#x1e44;" horiz-adv-x="653" 
d="M82 654h119l203 -368l68 -139h4q-5 51 -10 109.5t-5 113.5v284h110v-654h-119l-203 368l-68 139h-4q5 -52 10 -109t5 -112v-286h-110v654zM328 707q-31 0 -51 18.5t-20 47.5t20 47t51 18t51 -18t20 -47t-20 -47.5t-51 -18.5z" />
    <glyph glyph-name="uni1E45" unicode="&#x1e45;" horiz-adv-x="560" 
d="M73 491h95l8 -66h4q33 32 71.5 55t89.5 23q79 0 115 -50.5t36 -144.5v-308h-115v293q0 61 -18 86t-59 25q-32 0 -56.5 -15.5t-55.5 -45.5v-343h-115v491zM300 577q-30 0 -49 18.5t-19 47.5t19 47t49 18t49 -18t19 -47t-19 -47.5t-49 -18.5z" />
    <glyph glyph-name="uni1E46" unicode="&#x1e46;" horiz-adv-x="653" 
d="M82 654h119l203 -368l68 -139h4q-5 51 -10 109.5t-5 113.5v284h110v-654h-119l-203 368l-68 139h-4q5 -52 10 -109t5 -112v-286h-110v654zM334 -216q-30 0 -49 18.5t-19 47.5t19 47t49 18t49 -18t19 -47t-19 -47.5t-49 -18.5z" />
    <glyph glyph-name="uni1E47" unicode="&#x1e47;" horiz-adv-x="560" 
d="M73 491h95l8 -66h4q33 32 71.5 55t89.5 23q79 0 115 -50.5t36 -144.5v-308h-115v293q0 61 -18 86t-59 25q-32 0 -56.5 -15.5t-55.5 -45.5v-343h-115v491zM286 -216q-30 0 -49 18.5t-19 47.5t19 47t49 18t49 -18t19 -47t-19 -47.5t-49 -18.5z" />
    <glyph glyph-name="uni1E48" unicode="&#x1e48;" horiz-adv-x="653" 
d="M82 654h119l203 -368l68 -139h4q-5 51 -10 109.5t-5 113.5v284h110v-654h-119l-203 368l-68 139h-4q5 -52 10 -109t5 -112v-286h-110v654zM464 -180h-261v76h261v-76z" />
    <glyph glyph-name="uni1E49" unicode="&#x1e49;" horiz-adv-x="560" 
d="M73 491h95l8 -66h4q33 32 71.5 55t89.5 23q79 0 115 -50.5t36 -144.5v-308h-115v293q0 61 -18 86t-59 25q-32 0 -56.5 -15.5t-55.5 -45.5v-343h-115v491zM415 -180h-261v76h261v-76z" />
    <glyph glyph-name="uni1E5A" unicode="&#x1e5a;" horiz-adv-x="596" 
d="M198 348h92q68 0 103 28t35 84q0 57 -35 79t-103 22h-92v-213zM438 0l-141 256h-99v-256h-116v654h220q51 0 95 -10t76.5 -32.5t51 -59.5t18.5 -92q0 -75 -35.5 -121t-95.5 -66l156 -273h-130zM317 -216q-30 0 -49 18.5t-19 47.5t19 47t49 18t49 -18t19 -47t-19 -47.5
t-49 -18.5z" />
    <glyph glyph-name="uni1E5B" unicode="&#x1e5b;" horiz-adv-x="373" 
d="M73 491h95l8 -87h4q26 48 63 73.5t76 25.5q35 0 56 -10l-20 -100q-13 4 -24 6t-27 2q-29 0 -61 -22.5t-55 -78.5v-300h-115v491zM129 -216q-30 0 -49 18.5t-19 47.5t19 47t49 18t49 -18t19 -47t-19 -47.5t-49 -18.5z" />
    <glyph glyph-name="uni1E5C" unicode="&#x1e5c;" horiz-adv-x="596" 
d="M198 348h92q68 0 103 28t35 84q0 57 -35 79t-103 22h-92v-213zM438 0l-141 256h-99v-256h-116v654h220q51 0 95 -10t76.5 -32.5t51 -59.5t18.5 -92q0 -75 -35.5 -121t-95.5 -66l156 -273h-130zM168 800h266v-76h-266v76zM317 -216q-30 0 -49 18.5t-19 47.5t19 47t49 18
t49 -18t19 -47t-19 -47.5t-49 -18.5z" />
    <glyph glyph-name="uni1E5D" unicode="&#x1e5d;" horiz-adv-x="373" 
d="M73 491h95l8 -87h4q26 48 63 73.5t76 25.5q35 0 56 -10l-20 -100q-13 4 -24 6t-27 2q-29 0 -61 -22.5t-55 -78.5v-300h-115v491zM102 672h260v-76h-260v76zM129 -216q-30 0 -49 18.5t-19 47.5t19 47t49 18t49 -18t19 -47t-19 -47.5t-49 -18.5z" />
    <glyph glyph-name="uni1E5E" unicode="&#x1e5e;" horiz-adv-x="596" 
d="M198 348h92q68 0 103 28t35 84q0 57 -35 79t-103 22h-92v-213zM438 0l-141 256h-99v-256h-116v654h220q51 0 95 -10t76.5 -32.5t51 -59.5t18.5 -92q0 -75 -35.5 -121t-95.5 -66l156 -273h-130zM447 -180h-261v76h261v-76z" />
    <glyph glyph-name="uni1E5F" unicode="&#x1e5f;" horiz-adv-x="373" 
d="M73 491h95l8 -87h4q26 48 63 73.5t76 25.5q35 0 56 -10l-20 -100q-13 4 -24 6t-27 2q-29 0 -61 -22.5t-55 -78.5v-300h-115v491zM259 -180h-261v76h261v-76z" />
    <glyph glyph-name="uni1E60" unicode="&#x1e60;" horiz-adv-x="542" 
d="M104 163q35 -33 80 -53.5t91 -20.5q55 0 84.5 23t29.5 61q0 20 -7.5 34t-21 24.5t-32.5 19.5t-41 18l-89 39q-24 10 -48 25t-42.5 36t-30 49t-11.5 64q0 39 16.5 72.5t45.5 58.5t69 39t88 14q58 0 111 -22.5t91 -60.5l-60 -74q-31 26 -65.5 41t-76.5 15
q-47 0 -74.5 -20.5t-27.5 -56.5q0 -19 8.5 -32.5t23 -24t33.5 -19t39 -16.5l88 -37q29 -12 53.5 -28t42 -37t27 -48.5t9.5 -63.5q0 -40 -16 -75t-46.5 -61.5t-74 -42t-98.5 -15.5q-66 0 -127 25t-108 71zM284 707q-31 0 -51 18.5t-20 47.5t20 47t51 18t51 -18t20 -47
t-20 -47.5t-51 -18.5z" />
    <glyph glyph-name="uni1E61" unicode="&#x1e61;" horiz-adv-x="431" 
d="M78 130q33 -26 65.5 -40.5t70.5 -14.5q40 0 59 16.5t19 42.5q0 15 -9 26.5t-24 20.5t-34 16.5t-38 15.5q-24 9 -49 21t-44.5 29t-32 39.5t-12.5 53.5q0 65 48 106t131 41q51 0 92 -18t71 -41l-53 -70q-26 19 -52.5 30.5t-55.5 11.5q-37 0 -54.5 -15.5t-17.5 -38.5
q0 -14 8.5 -24.5t22.5 -19t32.5 -15.5t38.5 -14q25 -9 50 -20.5t45.5 -28.5t33 -41.5t12.5 -58.5q0 -32 -12.5 -59.5t-36.5 -48t-60 -32.5t-82 -12q-51 0 -100.5 19.5t-85.5 48.5zM227 577q-30 0 -49 18.5t-19 47.5t19 47t49 18t49 -18t19 -47t-19 -47.5t-49 -18.5z" />
    <glyph glyph-name="uni1E62" unicode="&#x1e62;" horiz-adv-x="542" 
d="M104 163q35 -33 80 -53.5t91 -20.5q55 0 84.5 23t29.5 61q0 20 -7.5 34t-21 24.5t-32.5 19.5t-41 18l-89 39q-24 10 -48 25t-42.5 36t-30 49t-11.5 64q0 39 16.5 72.5t45.5 58.5t69 39t88 14q58 0 111 -22.5t91 -60.5l-60 -74q-31 26 -65.5 41t-76.5 15
q-47 0 -74.5 -20.5t-27.5 -56.5q0 -19 8.5 -32.5t23 -24t33.5 -19t39 -16.5l88 -37q29 -12 53.5 -28t42 -37t27 -48.5t9.5 -63.5q0 -40 -16 -75t-46.5 -61.5t-74 -42t-98.5 -15.5q-66 0 -127 25t-108 71zM275 -216q-30 0 -49 18.5t-19 47.5t19 47t49 18t49 -18t19 -47
t-19 -47.5t-49 -18.5z" />
    <glyph glyph-name="uni1E63" unicode="&#x1e63;" horiz-adv-x="431" 
d="M78 130q33 -26 65.5 -40.5t70.5 -14.5q40 0 59 16.5t19 42.5q0 15 -9 26.5t-24 20.5t-34 16.5t-38 15.5q-24 9 -49 21t-44.5 29t-32 39.5t-12.5 53.5q0 65 48 106t131 41q51 0 92 -18t71 -41l-53 -70q-26 19 -52.5 30.5t-55.5 11.5q-37 0 -54.5 -15.5t-17.5 -38.5
q0 -14 8.5 -24.5t22.5 -19t32.5 -15.5t38.5 -14q25 -9 50 -20.5t45.5 -28.5t33 -41.5t12.5 -58.5q0 -32 -12.5 -59.5t-36.5 -48t-60 -32.5t-82 -12q-51 0 -100.5 19.5t-85.5 48.5zM227 -216q-30 0 -49 18.5t-19 47.5t19 47t49 18t49 -18t19 -47t-19 -47.5t-49 -18.5z" />
    <glyph glyph-name="uni1E6C" unicode="&#x1e6c;" horiz-adv-x="543" 
d="M214 556h-189v98h493v-98h-188v-556h-116v556zM271 -216q-30 0 -49 18.5t-19 47.5t19 47t49 18t49 -18t19 -47t-19 -47.5t-49 -18.5z" />
    <glyph glyph-name="uni1E6D" unicode="&#x1e6d;" horiz-adv-x="361" 
d="M90 400h-70v86l76 5l14 134h96v-134h125v-91h-125v-234q0 -86 69 -86q13 0 26.5 3t24.5 8l20 -85q-20 -7 -45.5 -12.5t-54.5 -5.5q-43 0 -72.5 13t-48 36.5t-27 56t-8.5 72.5v234zM224 -216q-30 0 -49 18.5t-19 47.5t19 47t49 18t49 -18t19 -47t-19 -47.5t-49 -18.5z" />
    <glyph glyph-name="uni1E6E" unicode="&#x1e6e;" horiz-adv-x="543" 
d="M214 556h-189v98h493v-98h-188v-556h-116v556zM401 -180h-261v76h261v-76z" />
    <glyph glyph-name="uni1E6F" unicode="&#x1e6f;" horiz-adv-x="361" 
d="M90 400h-70v86l76 5l14 134h96v-134h125v-91h-125v-234q0 -86 69 -86q13 0 26.5 3t24.5 8l20 -85q-20 -7 -45.5 -12.5t-54.5 -5.5q-43 0 -72.5 13t-48 36.5t-27 56t-8.5 72.5v234zM354 -180h-261v76h261v-76z" />
    <glyph glyph-name="Wgrave" unicode="&#x1e80;" horiz-adv-x="797" 
d="M16 654h120l56 -330q8 -53 16.5 -105t16.5 -104h4q10 52 20.5 104.5t21.5 104.5l81 330h100l81 -330q11 -51 21.5 -103.5t21.5 -105.5h4q8 53 16 105l16 104l56 330h112l-126 -654h-144l-81 344q-8 38 -15 75.5t-14 75.5h-4q-7 -38 -14 -75.5t-15 -75.5l-79 -344h-142z
M251 820h126l84 -116h-93z" />
    <glyph glyph-name="wgrave" unicode="&#x1e81;" horiz-adv-x="748" 
d="M24 491h116l59 -255q8 -35 13.5 -70t12.5 -71h4q7 36 14.5 71t16.5 70l64 255h105l65 -255q9 -35 17 -70t16 -71h4q7 36 13 71t13 70l59 255h108l-125 -491h-137l-57 229q-8 35 -15 69.5t-15 73.5h-4q-7 -39 -14 -74t-15 -70l-56 -228h-132zM245 719h114l90 -146h-86z
" />
    <glyph glyph-name="Wacute" unicode="&#x1e82;" horiz-adv-x="797" 
d="M16 654h120l56 -330q8 -53 16.5 -105t16.5 -104h4q10 52 20.5 104.5t21.5 104.5l81 330h100l81 -330q11 -51 21.5 -103.5t21.5 -105.5h4q8 53 16 105l16 104l56 330h112l-126 -654h-144l-81 344q-8 38 -15 75.5t-14 75.5h-4q-7 -38 -14 -75.5t-15 -75.5l-79 -344h-142z
M428 704h-93l84 116h126z" />
    <glyph glyph-name="wacute" unicode="&#x1e83;" horiz-adv-x="748" 
d="M24 491h116l59 -255q8 -35 13.5 -70t12.5 -71h4q7 36 14.5 71t16.5 70l64 255h105l65 -255q9 -35 17 -70t16 -71h4q7 36 13 71t13 70l59 255h108l-125 -491h-137l-57 229q-8 35 -15 69.5t-15 73.5h-4q-7 -39 -14 -74t-15 -70l-56 -228h-132zM387 573h-86l90 146h114z" />
    <glyph glyph-name="Wdieresis" unicode="&#x1e84;" horiz-adv-x="797" 
d="M16 654h120l56 -330q8 -53 16.5 -105t16.5 -104h4q10 52 20.5 104.5t21.5 104.5l81 330h100l81 -330q11 -51 21.5 -103.5t21.5 -105.5h4q8 53 16 105l16 104l56 330h112l-126 -654h-144l-81 344q-8 38 -15 75.5t-14 75.5h-4q-7 -38 -14 -75.5t-15 -75.5l-79 -344h-142z
M305 708q-26 0 -42.5 16.5t-16.5 42.5t16.5 43t42.5 17t43 -17t17 -43t-17 -42.5t-43 -16.5zM491 708q-26 0 -43 16.5t-17 42.5t17 43t43 17t42.5 -17t16.5 -43t-16.5 -42.5t-42.5 -16.5z" />
    <glyph glyph-name="wdieresis" unicode="&#x1e85;" horiz-adv-x="748" 
d="M24 491h116l59 -255q8 -35 13.5 -70t12.5 -71h4q7 36 14.5 71t16.5 70l64 255h105l65 -255q9 -35 17 -70t16 -71h4q7 36 13 71t13 70l59 255h108l-125 -491h-137l-57 229q-8 35 -15 69.5t-15 73.5h-4q-7 -39 -14 -74t-15 -70l-56 -228h-132zM282 579q-26 0 -42.5 17
t-16.5 43q0 25 16.5 42t42.5 17t43 -17t17 -42q0 -26 -17 -43t-43 -17zM468 579q-26 0 -43 17t-17 43q0 25 17 42t43 17t42.5 -17t16.5 -42q0 -26 -16.5 -43t-42.5 -17z" />
    <glyph glyph-name="uni1E8E" unicode="&#x1e8e;" horiz-adv-x="498" 
d="M191 243l-197 411h124l71 -167q14 -37 28.5 -71.5t29.5 -72.5h4q16 38 31.5 72.5t29.5 71.5l71 167h121l-197 -411v-243h-116v243zM249 707q-31 0 -51 18.5t-20 47.5t20 47t51 18t51 -18t20 -47t-20 -47.5t-51 -18.5z" />
    <glyph glyph-name="uni1E8F" unicode="&#x1e8f;" horiz-adv-x="495" 
d="M63 -102q7 -2 16.5 -4.5t18.5 -2.5q39 0 62.5 23.5t35.5 60.5l9 31l-193 485h117l85 -241q11 -32 21.5 -67.5t21.5 -70.5h4q9 34 18.5 69.5t18.5 68.5l74 241h111l-178 -513q-15 -42 -33 -75t-41.5 -56.5t-54 -36t-70.5 -12.5q-20 0 -35 2.5t-29 7.5l21 90v0zM255 577
q-30 0 -49 18.5t-19 47.5t19 47t49 18t49 -18t19 -47t-19 -47.5t-49 -18.5z" />
    <glyph glyph-name="uni1E92" unicode="&#x1e92;" horiz-adv-x="537" 
d="M38 70l317 486h-287v98h430v-70l-316 -486h319v-98h-463v70zM279 -216q-30 0 -49 18.5t-19 47.5t19 47t49 18t49 -18t19 -47t-19 -47.5t-49 -18.5z" />
    <glyph glyph-name="uni1E93" unicode="&#x1e93;" horiz-adv-x="443" 
d="M34 62l232 338h-206v91h350v-61l-231 -338h239v-92h-384v62zM236 -216q-30 0 -49 18.5t-19 47.5t19 47t49 18t49 -18t19 -47t-19 -47.5t-49 -18.5z" />
    <glyph glyph-name="uni1E97" unicode="&#x1e97;" horiz-adv-x="361" 
d="M90 400h-70v86l76 5l14 134h96v-134h125v-91h-125v-234q0 -86 69 -86q13 0 26.5 3t24.5 8l20 -85q-20 -7 -45.5 -12.5t-54.5 -5.5q-43 0 -72.5 13t-48 36.5t-27 56t-8.5 72.5v234zM62 717q-26 0 -42.5 17t-16.5 43q0 25 16.5 42t42.5 17t43 -17t17 -42q0 -26 -17 -43
t-43 -17zM248 717q-26 0 -43 17t-17 43q0 25 17 42t43 17t42.5 -17t16.5 -42q0 -26 -16.5 -43t-42.5 -17z" />
    <glyph glyph-name="uni1E9E" unicode="&#x1e9e;" horiz-adv-x="683" 
d="M84 413q0 53 16 99.5t49 80.5t83.5 53.5t119.5 19.5q92 0 150 -46.5t83 -122.5l-122 -137q89 -22 135 -67.5t46 -118.5q0 -39 -13.5 -73t-39 -59t-62 -39.5t-82.5 -14.5q-61 0 -107.5 21.5t-75.5 52.5l62 72q26 -28 52.5 -39.5t55.5 -11.5q42 0 66 25.5t24 66.5
q0 19 -8.5 36.5t-28 32.5t-52.5 27.5t-82 20.5l-7 70l122 139q-14 29 -43.5 49.5t-75.5 20.5q-72 0 -110.5 -43t-38.5 -133v-395h-116v413z" />
    <glyph glyph-name="uni1EA0" unicode="&#x1ea0;" horiz-adv-x="555" 
d="M359 268l-23 80q-15 52 -30 107t-29 109h-4q-14 -55 -28 -109.5t-30 -106.5l-23 -80h167zM385 177h-219l-51 -177h-119l214 654h136l213 -654h-123zM275 -216q-30 0 -49 18.5t-19 47.5t19 47t49 18t49 -18t19 -47t-19 -47.5t-49 -18.5z" />
    <glyph glyph-name="uni1EA1" unicode="&#x1ea1;" horiz-adv-x="523" 
d="M52 132q0 79 69 122t220 60q0 19 -5 36.5t-15.5 31t-27 21t-41.5 7.5q-37 0 -71.5 -14t-66.5 -34l-42 77q41 26 91.5 45t109.5 19q93 0 138 -54.5t45 -157.5v-291h-94l-9 54h-3q-33 -28 -70.5 -47t-81.5 -19q-65 0 -105.5 39.5t-40.5 104.5zM164 141q0 -33 19.5 -48
t50.5 -15q30 0 55 14t52 40v110q-50 -6 -84 -16t-54.5 -22.5t-29.5 -28.5t-9 -34zM258 -216q-30 0 -49 18.5t-19 47.5t19 47t49 18t49 -18t19 -47t-19 -47.5t-49 -18.5z" />
    <glyph glyph-name="uni1EA2" unicode="&#x1ea2;" horiz-adv-x="555" 
d="M359 268l-23 80q-15 52 -30 107t-29 109h-4q-14 -55 -28 -109.5t-30 -106.5l-23 -80h167zM385 177h-219l-51 -177h-119l214 654h136l213 -654h-123zM233 743q21 5 35.5 13t14.5 24q0 17 -19 26.5t-62 11.5l13 61q80 -2 117 -24.5t37 -61.5q0 -24 -10.5 -41t-27.5 -29
t-40 -19t-48 -10z" />
    <glyph glyph-name="uni1EA3" unicode="&#x1ea3;" horiz-adv-x="523" 
d="M52 132q0 79 69 122t220 60q0 19 -5 36.5t-15.5 31t-27 21t-41.5 7.5q-37 0 -71.5 -14t-66.5 -34l-42 77q41 26 91.5 45t109.5 19q93 0 138 -54.5t45 -157.5v-291h-94l-9 54h-3q-33 -28 -70.5 -47t-81.5 -19q-65 0 -105.5 39.5t-40.5 104.5zM164 141q0 -33 19.5 -48
t50.5 -15q30 0 55 14t52 40v110q-50 -6 -84 -16t-54.5 -22.5t-29.5 -28.5t-9 -34zM233 603q21 5 35.5 13t14.5 25t-19 26.5t-62 11.5l13 61q80 -3 117 -25t37 -62q0 -24 -10.5 -41t-27.5 -28.5t-40 -18.5t-48 -10z" />
    <glyph glyph-name="uni1EA4" unicode="&#x1ea4;" horiz-adv-x="555" 
d="M359 268l-23 80q-15 52 -30 107t-29 109h-4q-14 -55 -28 -109.5t-30 -106.5l-23 -80h167zM385 177h-219l-51 -177h-119l214 654h136l213 -654h-123zM447 886h93l-95 -116h-68zM225 814h100l94 -110h-84l-58 58h-4l-58 -58h-84z" />
    <glyph glyph-name="uni1EA5" unicode="&#x1ea5;" horiz-adv-x="523" 
d="M52 132q0 79 69 122t220 60q0 19 -5 36.5t-15.5 31t-27 21t-41.5 7.5q-37 0 -71.5 -14t-66.5 -34l-42 77q41 26 91.5 45t109.5 19q93 0 138 -54.5t45 -157.5v-291h-94l-9 54h-3q-33 -28 -70.5 -47t-81.5 -19q-65 0 -105.5 39.5t-40.5 104.5zM164 141q0 -33 19.5 -48
t50.5 -15q30 0 55 14t52 40v110q-50 -6 -84 -16t-54.5 -22.5t-29.5 -28.5t-9 -34zM229 697h92l82 -124h-74l-52 69h-4l-52 -69h-74zM444 759h89l-93 -116h-67z" />
    <glyph glyph-name="uni1EA6" unicode="&#x1ea6;" horiz-adv-x="555" 
d="M359 268l-23 80q-15 52 -30 107t-29 109h-4q-14 -55 -28 -109.5t-30 -106.5l-23 -80h167zM385 177h-219l-51 -177h-119l214 654h136l213 -654h-123zM486 770h-68l-94 116h93zM225 814h100l94 -110h-84l-58 58h-4l-58 -58h-84z" />
    <glyph glyph-name="uni1EA7" unicode="&#x1ea7;" horiz-adv-x="523" 
d="M52 132q0 79 69 122t220 60q0 19 -5 36.5t-15.5 31t-27 21t-41.5 7.5q-37 0 -71.5 -14t-66.5 -34l-42 77q41 26 91.5 45t109.5 19q93 0 138 -54.5t45 -157.5v-291h-94l-9 54h-3q-33 -28 -70.5 -47t-81.5 -19q-65 0 -105.5 39.5t-40.5 104.5zM164 141q0 -33 19.5 -48
t50.5 -15q30 0 55 14t52 40v110q-50 -6 -84 -16t-54.5 -22.5t-29.5 -28.5t-9 -34zM229 697h92l82 -124h-74l-52 69h-4l-52 -69h-74zM501 643h-67l-94 116h90z" />
    <glyph glyph-name="uni1EA8" unicode="&#x1ea8;" horiz-adv-x="555" 
d="M359 268l-23 80q-15 52 -30 107t-29 109h-4q-14 -55 -28 -109.5t-30 -106.5l-23 -80h167zM385 177h-219l-51 -177h-119l214 654h136l213 -654h-123zM390 793q17 4 28 11t11 21q0 17 -15.5 25t-52.5 10l11 52q71 -3 102 -23t31 -54q0 -41 -30.5 -60t-73.5 -23zM225 814
h100l94 -110h-84l-58 58h-4l-58 -58h-84z" />
    <glyph glyph-name="uni1EA9" unicode="&#x1ea9;" horiz-adv-x="523" 
d="M52 132q0 79 69 122t220 60q0 19 -5 36.5t-15.5 31t-27 21t-41.5 7.5q-37 0 -71.5 -14t-66.5 -34l-42 77q41 26 91.5 45t109.5 19q93 0 138 -54.5t45 -157.5v-291h-94l-9 54h-3q-33 -28 -70.5 -47t-81.5 -19q-65 0 -105.5 39.5t-40.5 104.5zM164 141q0 -33 19.5 -48
t50.5 -15q30 0 55 14t52 40v110q-50 -6 -84 -16t-54.5 -22.5t-29.5 -28.5t-9 -34zM229 697h92l82 -124h-74l-52 69h-4l-52 -69h-74zM393 670q16 5 26 12.5t10 21.5q0 17 -14.5 26t-52.5 11l10 52q71 -2 103 -22t32 -55q0 -22 -8.5 -37t-23 -25t-33.5 -16t-40 -10z" />
    <glyph glyph-name="uni1EAA" unicode="&#x1eaa;" horiz-adv-x="555" 
d="M359 268l-23 80q-15 52 -30 107t-29 109h-4q-14 -55 -28 -109.5t-30 -106.5l-23 -80h167zM385 177h-219l-51 -177h-119l214 654h136l213 -654h-123zM225 814h100l94 -110h-84l-58 58h-4l-58 -58h-84zM134 849q5 50 28.5 77t57.5 27q18 0 32.5 -6.5t26.5 -14.5t23 -14.5
t22 -6.5q14 0 24 10.5t14 31.5h54q-5 -50 -28.5 -77t-57.5 -27q-18 0 -32.5 6.5t-26.5 14.5t-23 14.5t-22 6.5q-14 0 -24 -10.5t-14 -31.5h-54z" />
    <glyph glyph-name="uni1EAB" unicode="&#x1eab;" horiz-adv-x="523" 
d="M52 132q0 79 69 122t220 60q0 19 -5 36.5t-15.5 31t-27 21t-41.5 7.5q-37 0 -71.5 -14t-66.5 -34l-42 77q41 26 91.5 45t109.5 19q93 0 138 -54.5t45 -157.5v-291h-94l-9 54h-3q-33 -28 -70.5 -47t-81.5 -19q-65 0 -105.5 39.5t-40.5 104.5zM164 141q0 -33 19.5 -48
t50.5 -15q30 0 55 14t52 40v110q-50 -6 -84 -16t-54.5 -22.5t-29.5 -28.5t-9 -34zM223 680h104l84 -108h-77l-57 62h-4l-57 -62h-77zM137 716q5 50 27.5 76t56.5 26q19 0 33.5 -6.5t26 -14t21.5 -13.5t21 -6q29 0 38 40h52q-5 -50 -27.5 -76t-56.5 -26q-20 0 -34 6
t-25.5 13.5t-21.5 14t-21 6.5q-29 0 -38 -40h-52z" />
    <glyph glyph-name="uni1EAC" unicode="&#x1eac;" horiz-adv-x="555" 
d="M359 268l-23 80q-15 52 -30 107t-29 109h-4q-14 -55 -28 -109.5t-30 -106.5l-23 -80h167zM385 177h-219l-51 -177h-119l214 654h136l213 -654h-123zM123 704l96 116h112l96 -116h-90l-60 64h-4l-60 -64h-90zM275 -216q-30 0 -49 18.5t-19 47.5t19 47t49 18t49 -18t19 -47
t-19 -47.5t-49 -18.5z" />
    <glyph glyph-name="uni1EAD" unicode="&#x1ead;" horiz-adv-x="523" 
d="M52 132q0 79 69 122t220 60q0 19 -5 36.5t-15.5 31t-27 21t-41.5 7.5q-37 0 -71.5 -14t-66.5 -34l-42 77q41 26 91.5 45t109.5 19q93 0 138 -54.5t45 -157.5v-291h-94l-9 54h-3q-33 -28 -70.5 -47t-81.5 -19q-65 0 -105.5 39.5t-40.5 104.5zM164 141q0 -33 19.5 -48
t50.5 -15q30 0 55 14t52 40v110q-50 -6 -84 -16t-54.5 -22.5t-29.5 -28.5t-9 -34zM229 719h92l96 -146h-80l-60 85h-4l-60 -85h-80zM258 -216q-30 0 -49 18.5t-19 47.5t19 47t49 18t49 -18t19 -47t-19 -47.5t-49 -18.5z" />
    <glyph glyph-name="uni1EAE" unicode="&#x1eae;" horiz-adv-x="555" 
d="M359 268l-23 80q-15 52 -30 107t-29 109h-4q-14 -55 -28 -109.5t-30 -106.5l-23 -80h167zM385 177h-219l-51 -177h-119l214 654h136l213 -654h-123zM302 917h92l-99 -112h-62zM275 705q-62 0 -93 33t-36 80h56q6 -24 22 -41t51 -17t51 17t22 41h56q-5 -47 -36.5 -80
t-92.5 -33z" />
    <glyph glyph-name="uni1EAF" unicode="&#x1eaf;" horiz-adv-x="523" 
d="M52 132q0 79 69 122t220 60q0 19 -5 36.5t-15.5 31t-27 21t-41.5 7.5q-37 0 -71.5 -14t-66.5 -34l-42 77q41 26 91.5 45t109.5 19q93 0 138 -54.5t45 -157.5v-291h-94l-9 54h-3q-33 -28 -70.5 -47t-81.5 -19q-65 0 -105.5 39.5t-40.5 104.5zM164 141q0 -33 19.5 -48
t50.5 -15q30 0 55 14t52 40v110q-50 -6 -84 -16t-54.5 -22.5t-29.5 -28.5t-9 -34zM296 800h87l-88 -116h-62zM275 575q-34 0 -58.5 11.5t-40.5 30t-24.5 42.5t-9.5 49h55q5 -30 23.5 -52t54.5 -22t54.5 22t23.5 52h55q-2 -25 -10 -49t-24 -42.5t-40.5 -30t-58.5 -11.5z" />
    <glyph glyph-name="uni1EB0" unicode="&#x1eb0;" horiz-adv-x="555" 
d="M359 268l-23 80q-15 52 -30 107t-29 109h-4q-14 -55 -28 -109.5t-30 -106.5l-23 -80h167zM385 177h-219l-51 -177h-119l214 654h136l213 -654h-123zM317 805h-62l-99 112h92zM275 705q-62 0 -93 33t-36 80h56q6 -24 22 -41t51 -17t51 17t22 41h56q-5 -47 -36.5 -80
t-92.5 -33z" />
    <glyph glyph-name="uni1EB1" unicode="&#x1eb1;" horiz-adv-x="523" 
d="M52 132q0 79 69 122t220 60q0 19 -5 36.5t-15.5 31t-27 21t-41.5 7.5q-37 0 -71.5 -14t-66.5 -34l-42 77q41 26 91.5 45t109.5 19q93 0 138 -54.5t45 -157.5v-291h-94l-9 54h-3q-33 -28 -70.5 -47t-81.5 -19q-65 0 -105.5 39.5t-40.5 104.5zM164 141q0 -33 19.5 -48
t50.5 -15q30 0 55 14t52 40v110q-50 -6 -84 -16t-54.5 -22.5t-29.5 -28.5t-9 -34zM317 684h-62l-88 116h87zM275 575q-34 0 -58.5 11.5t-40.5 30t-24.5 42.5t-9.5 49h55q5 -30 23.5 -52t54.5 -22t54.5 22t23.5 52h55q-2 -25 -10 -49t-24 -42.5t-40.5 -30t-58.5 -11.5z" />
    <glyph glyph-name="uni1EB2" unicode="&#x1eb2;" horiz-adv-x="555" 
d="M359 268l-23 80q-15 52 -30 107t-29 109h-4q-14 -55 -28 -109.5t-30 -106.5l-23 -80h167zM385 177h-219l-51 -177h-119l214 654h136l213 -654h-123zM236 844q17 4 28 11t11 21q0 17 -15.5 25t-52.5 11l11 51q71 -2 102 -22t31 -55q0 -41 -30.5 -59.5t-73.5 -23.5z
M275 705q-62 0 -93 33t-36 80h56q6 -24 22 -41t51 -17t51 17t22 41h56q-5 -47 -36.5 -80t-92.5 -33z" />
    <glyph glyph-name="uni1EB3" unicode="&#x1eb3;" horiz-adv-x="523" 
d="M52 132q0 79 69 122t220 60q0 19 -5 36.5t-15.5 31t-27 21t-41.5 7.5q-37 0 -71.5 -14t-66.5 -34l-42 77q41 26 91.5 45t109.5 19q93 0 138 -54.5t45 -157.5v-291h-94l-9 54h-3q-33 -28 -70.5 -47t-81.5 -19q-65 0 -105.5 39.5t-40.5 104.5zM164 141q0 -33 19.5 -48
t50.5 -15q30 0 55 14t52 40v110q-50 -6 -84 -16t-54.5 -22.5t-29.5 -28.5t-9 -34zM275 575q-34 0 -58.5 11.5t-40.5 30t-24.5 42.5t-9.5 49h55q5 -30 23.5 -52t54.5 -22t54.5 22t23.5 52h55q-2 -25 -10 -49t-24 -42.5t-40.5 -30t-58.5 -11.5zM235 733q17 5 26.5 12t9.5 22
q0 17 -14.5 26t-52.5 11l11 51q71 -2 102.5 -21.5t31.5 -54.5q0 -23 -8.5 -38t-23 -25t-33.5 -16t-40 -9z" />
    <glyph glyph-name="uni1EB4" unicode="&#x1eb4;" horiz-adv-x="555" 
d="M359 268l-23 80q-15 52 -30 107t-29 109h-4q-14 -55 -28 -109.5t-30 -106.5l-23 -80h167zM385 177h-219l-51 -177h-119l214 654h136l213 -654h-123zM275 705q-62 0 -93 33t-36 80h56q6 -24 22 -41t51 -17t51 17t22 41h56q-5 -47 -36.5 -80t-92.5 -33zM134 849
q5 50 28.5 77t57.5 27q18 0 32.5 -6.5t26.5 -14.5t23 -14.5t22 -6.5q14 0 24 10.5t14 31.5h54q-5 -50 -28.5 -77t-57.5 -27q-18 0 -32.5 6.5t-26.5 14.5t-23 14.5t-22 6.5q-14 0 -24 -10.5t-14 -31.5h-54z" />
    <glyph glyph-name="uni1EB5" unicode="&#x1eb5;" horiz-adv-x="523" 
d="M52 132q0 79 69 122t220 60q0 19 -5 36.5t-15.5 31t-27 21t-41.5 7.5q-37 0 -71.5 -14t-66.5 -34l-42 77q41 26 91.5 45t109.5 19q93 0 138 -54.5t45 -157.5v-291h-94l-9 54h-3q-33 -28 -70.5 -47t-81.5 -19q-65 0 -105.5 39.5t-40.5 104.5zM164 141q0 -33 19.5 -48
t50.5 -15q30 0 55 14t52 40v110q-50 -6 -84 -16t-54.5 -22.5t-29.5 -28.5t-9 -34zM275 575q-34 0 -58 9.5t-40 25t-24.5 36t-9.5 42.5h57q5 -22 22.5 -39t52.5 -17t52.5 17t22.5 39h57q-2 -22 -10 -42.5t-24 -36t-40 -25t-58 -9.5zM137 716q5 50 27.5 76t56.5 26
q19 0 33.5 -6.5t26 -14t21.5 -13.5t21 -6q29 0 38 40h52q-5 -50 -27.5 -76t-56.5 -26q-20 0 -34 6t-25.5 13.5t-21.5 14t-21 6.5q-29 0 -38 -40h-52z" />
    <glyph glyph-name="uni1EB6" unicode="&#x1eb6;" horiz-adv-x="555" 
d="M359 268l-23 80q-15 52 -30 107t-29 109h-4q-14 -55 -28 -109.5t-30 -106.5l-23 -80h167zM385 177h-219l-51 -177h-119l214 654h136l213 -654h-123zM275 705q-63 0 -94 33.5t-36 81.5h66q5 -22 19.5 -38t44.5 -16t44.5 16t19.5 38h66q-5 -48 -36 -81.5t-94 -33.5z
M275 -216q-30 0 -49 18.5t-19 47.5t19 47t49 18t49 -18t19 -47t-19 -47.5t-49 -18.5z" />
    <glyph glyph-name="uni1EB7" unicode="&#x1eb7;" horiz-adv-x="523" 
d="M52 132q0 79 69 122t220 60q0 19 -5 36.5t-15.5 31t-27 21t-41.5 7.5q-37 0 -71.5 -14t-66.5 -34l-42 77q41 26 91.5 45t109.5 19q93 0 138 -54.5t45 -157.5v-291h-94l-9 54h-3q-33 -28 -70.5 -47t-81.5 -19q-65 0 -105.5 39.5t-40.5 104.5zM164 141q0 -33 19.5 -48
t50.5 -15q30 0 55 14t52 40v110q-50 -6 -84 -16t-54.5 -22.5t-29.5 -28.5t-9 -34zM275 575q-34 0 -58.5 11.5t-40.5 30t-24.5 42.5t-9.5 49h67q4 -27 19.5 -47.5t46.5 -20.5t46.5 20.5t19.5 47.5h67q-2 -25 -10 -49t-24 -42.5t-40.5 -30t-58.5 -11.5zM258 -216
q-30 0 -49 18.5t-19 47.5t19 47t49 18t49 -18t19 -47t-19 -47.5t-49 -18.5z" />
    <glyph glyph-name="uni1EB8" unicode="&#x1eb8;" horiz-adv-x="534" 
d="M82 654h393v-98h-277v-167h235v-98h-235v-193h287v-98h-403v654zM293 -216q-30 0 -49 18.5t-19 47.5t19 47t49 18t49 -18t19 -47t-19 -47.5t-49 -18.5z" />
    <glyph glyph-name="uni1EB9" unicode="&#x1eb9;" horiz-adv-x="507" 
d="M41 245q0 60 19 108t50.5 81t72.5 51t84 18q50 0 88 -17t63.5 -48t38.5 -74t13 -94q0 -34 -5 -54h-312q8 -67 46.5 -103t98.5 -36q32 0 59.5 9.5t54.5 26.5l39 -72q-35 -23 -78 -38t-90 -15q-51 0 -95 17.5t-77 50.5t-51.5 80.5t-18.5 108.5zM370 289q0 59 -24.5 92
t-75.5 33q-44 0 -77 -31.5t-41 -93.5h218zM266 -216q-30 0 -49 18.5t-19 47.5t19 47t49 18t49 -18t19 -47t-19 -47.5t-49 -18.5z" />
    <glyph glyph-name="uni1EBA" unicode="&#x1eba;" horiz-adv-x="534" 
d="M82 654h393v-98h-277v-167h235v-98h-235v-193h287v-98h-403v654zM243 743q21 5 35.5 13t14.5 24q0 17 -19 26.5t-62 11.5l13 61q80 -2 117 -24.5t37 -61.5q0 -24 -10.5 -41t-27.5 -29t-40 -19t-48 -10z" />
    <glyph glyph-name="uni1EBB" unicode="&#x1ebb;" horiz-adv-x="507" 
d="M41 245q0 60 19 108t50.5 81t72.5 51t84 18q50 0 88 -17t63.5 -48t38.5 -74t13 -94q0 -34 -5 -54h-312q8 -67 46.5 -103t98.5 -36q32 0 59.5 9.5t54.5 26.5l39 -72q-35 -23 -78 -38t-90 -15q-51 0 -95 17.5t-77 50.5t-51.5 80.5t-18.5 108.5zM370 289q0 59 -24.5 92
t-75.5 33q-44 0 -77 -31.5t-41 -93.5h218zM225 603q21 5 35.5 13t14.5 25t-19 26.5t-62 11.5l13 61q80 -3 117 -25t37 -62q0 -24 -10.5 -41t-27.5 -28.5t-40 -18.5t-48 -10z" />
    <glyph glyph-name="uni1EBC" unicode="&#x1ebc;" horiz-adv-x="534" 
d="M82 654h393v-98h-277v-167h235v-98h-235v-193h287v-98h-403v654zM347 707q-20 0 -36.5 7.5t-31 17t-27 17t-25.5 7.5q-14 0 -24 -12t-15 -37h-61q6 58 32 90t64 32q20 0 36.5 -7.5t31 -16.5t27 -16.5t25.5 -7.5q14 0 24 11.5t15 36.5h61q-6 -57 -32 -89.5t-64 -32.5z" />
    <glyph glyph-name="uni1EBD" unicode="&#x1ebd;" horiz-adv-x="507" 
d="M41 245q0 60 19 108t50.5 81t72.5 51t84 18q50 0 88 -17t63.5 -48t38.5 -74t13 -94q0 -34 -5 -54h-312q8 -67 46.5 -103t98.5 -36q32 0 59.5 9.5t54.5 26.5l39 -72q-35 -23 -78 -38t-90 -15q-51 0 -95 17.5t-77 50.5t-51.5 80.5t-18.5 108.5zM370 289q0 59 -24.5 92
t-75.5 33q-44 0 -77 -31.5t-41 -93.5h218zM114 577q6 57 30.5 89t62.5 32q19 0 35.5 -7.5t30.5 -16.5t26 -16.5t24 -7.5q26 0 36 48h61q-6 -57 -30.5 -89t-62.5 -32q-20 0 -36 7.5t-29.5 16.5t-26 16.5t-24.5 7.5q-26 0 -36 -48h-61v0z" />
    <glyph glyph-name="uni1EBE" unicode="&#x1ebe;" horiz-adv-x="534" 
d="M82 654h393v-98h-277v-167h235v-98h-235v-193h287v-98h-403v654zM457 886h93l-95 -116h-68zM235 814h100l94 -110h-84l-58 58h-4l-58 -58h-84z" />
    <glyph glyph-name="uni1EBF" unicode="&#x1ebf;" horiz-adv-x="507" 
d="M41 245q0 60 19 108t50.5 81t72.5 51t84 18q50 0 88 -17t63.5 -48t38.5 -74t13 -94q0 -34 -5 -54h-312q8 -67 46.5 -103t98.5 -36q32 0 59.5 9.5t54.5 26.5l39 -72q-35 -23 -78 -38t-90 -15q-51 0 -95 17.5t-77 50.5t-51.5 80.5t-18.5 108.5zM370 289q0 59 -24.5 92
t-75.5 33q-44 0 -77 -31.5t-41 -93.5h218zM221 697h92l82 -124h-74l-52 69h-4l-52 -69h-74zM436 759h89l-93 -116h-67z" />
    <glyph glyph-name="uni1EC0" unicode="&#x1ec0;" horiz-adv-x="534" 
d="M82 654h393v-98h-277v-167h235v-98h-235v-193h287v-98h-403v654zM496 770h-68l-94 116h93zM235 814h100l94 -110h-84l-58 58h-4l-58 -58h-84z" />
    <glyph glyph-name="uni1EC1" unicode="&#x1ec1;" horiz-adv-x="507" 
d="M41 245q0 60 19 108t50.5 81t72.5 51t84 18q50 0 88 -17t63.5 -48t38.5 -74t13 -94q0 -34 -5 -54h-312q8 -67 46.5 -103t98.5 -36q32 0 59.5 9.5t54.5 26.5l39 -72q-35 -23 -78 -38t-90 -15q-51 0 -95 17.5t-77 50.5t-51.5 80.5t-18.5 108.5zM370 289q0 59 -24.5 92
t-75.5 33q-44 0 -77 -31.5t-41 -93.5h218zM221 697h92l82 -124h-74l-52 69h-4l-52 -69h-74zM493 643h-67l-94 116h90z" />
    <glyph glyph-name="uni1EC2" unicode="&#x1ec2;" horiz-adv-x="534" 
d="M82 654h393v-98h-277v-167h235v-98h-235v-193h287v-98h-403v654zM400 793q17 4 28 11t11 21q0 17 -15.5 25t-52.5 10l11 52q71 -3 102 -23t31 -54q0 -41 -30.5 -60t-73.5 -23zM235 814h100l94 -110h-84l-58 58h-4l-58 -58h-84z" />
    <glyph glyph-name="uni1EC3" unicode="&#x1ec3;" horiz-adv-x="507" 
d="M41 245q0 60 19 108t50.5 81t72.5 51t84 18q50 0 88 -17t63.5 -48t38.5 -74t13 -94q0 -34 -5 -54h-312q8 -67 46.5 -103t98.5 -36q32 0 59.5 9.5t54.5 26.5l39 -72q-35 -23 -78 -38t-90 -15q-51 0 -95 17.5t-77 50.5t-51.5 80.5t-18.5 108.5zM370 289q0 59 -24.5 92
t-75.5 33q-44 0 -77 -31.5t-41 -93.5h218zM221 697h92l82 -124h-74l-52 69h-4l-52 -69h-74zM385 670q16 5 26 12.5t10 21.5q0 17 -14.5 26t-52.5 11l10 52q71 -2 103 -22t32 -55q0 -22 -8.5 -37t-23 -25t-33.5 -16t-40 -10z" />
    <glyph glyph-name="uni1EC4" unicode="&#x1ec4;" horiz-adv-x="534" 
d="M82 654h393v-98h-277v-167h235v-98h-235v-193h287v-98h-403v654zM235 814h100l94 -110h-84l-58 58h-4l-58 -58h-84zM144 849q5 50 28.5 77t57.5 27q18 0 32.5 -6.5t26.5 -14.5t23 -14.5t22 -6.5q14 0 24 10.5t14 31.5h54q-5 -50 -28.5 -77t-57.5 -27q-18 0 -32.5 6.5
t-26.5 14.5t-23 14.5t-22 6.5q-14 0 -24 -10.5t-14 -31.5h-54z" />
    <glyph glyph-name="uni1EC5" unicode="&#x1ec5;" horiz-adv-x="507" 
d="M41 245q0 60 19 108t50.5 81t72.5 51t84 18q50 0 88 -17t63.5 -48t38.5 -74t13 -94q0 -34 -5 -54h-312q8 -67 46.5 -103t98.5 -36q32 0 59.5 9.5t54.5 26.5l39 -72q-35 -23 -78 -38t-90 -15q-51 0 -95 17.5t-77 50.5t-51.5 80.5t-18.5 108.5zM370 289q0 59 -24.5 92
t-75.5 33q-44 0 -77 -31.5t-41 -93.5h218zM215 680h104l84 -108h-77l-57 62h-4l-57 -62h-77zM129 716q5 50 27.5 76t56.5 26q19 0 33.5 -6.5t26 -14t21.5 -13.5t21 -6q29 0 38 40h52q-5 -50 -27.5 -76t-56.5 -26q-20 0 -34 6t-25.5 13.5t-21.5 14t-21 6.5q-29 0 -38 -40h-52
z" />
    <glyph glyph-name="uni1EC6" unicode="&#x1ec6;" horiz-adv-x="534" 
d="M82 654h393v-98h-277v-167h235v-98h-235v-193h287v-98h-403v654zM133 704l96 116h112l96 -116h-90l-60 64h-4l-60 -64h-90zM293 -216q-30 0 -49 18.5t-19 47.5t19 47t49 18t49 -18t19 -47t-19 -47.5t-49 -18.5z" />
    <glyph glyph-name="uni1EC7" unicode="&#x1ec7;" horiz-adv-x="507" 
d="M41 245q0 60 19 108t50.5 81t72.5 51t84 18q50 0 88 -17t63.5 -48t38.5 -74t13 -94q0 -34 -5 -54h-312q8 -67 46.5 -103t98.5 -36q32 0 59.5 9.5t54.5 26.5l39 -72q-35 -23 -78 -38t-90 -15q-51 0 -95 17.5t-77 50.5t-51.5 80.5t-18.5 108.5zM370 289q0 59 -24.5 92
t-75.5 33q-44 0 -77 -31.5t-41 -93.5h218zM221 719h92l96 -146h-80l-60 85h-4l-60 -85h-80zM265 -216q-30 0 -49 18.5t-19 47.5t19 47t49 18t49 -18t19 -47t-19 -47.5t-49 -18.5z" />
    <glyph glyph-name="uni1EC8" unicode="&#x1ec8;" horiz-adv-x="279" 
d="M82 654h116v-654h-116v654zM97 743q21 5 35.5 13t14.5 24q0 17 -19 26.5t-62 11.5l13 61q80 -2 117 -24.5t37 -61.5q0 -24 -10.5 -41t-27.5 -29t-40 -19t-48 -10z" />
    <glyph glyph-name="uni1EC9" unicode="&#x1ec9;" horiz-adv-x="262" 
d="M73 491h115v-491h-115v491zM89 603q21 5 35.5 13t14.5 25t-19 26.5t-62 11.5l13 61q80 -3 117 -25t37 -62q0 -24 -10.5 -41t-27.5 -28.5t-40 -18.5t-48 -10z" />
    <glyph glyph-name="uni1ECA" unicode="&#x1eca;" horiz-adv-x="279" 
d="M82 654h116v-654h-116v654zM139 -216q-30 0 -49 18.5t-19 47.5t19 47t49 18t49 -18t19 -47t-19 -47.5t-49 -18.5z" />
    <glyph glyph-name="uni1ECB" unicode="&#x1ecb;" horiz-adv-x="262" 
d="M131 577q-31 0 -51 18t-20 47t20 47.5t51 18.5t51 -18.5t20 -47.5t-20 -47t-51 -18zM73 491h115v-491h-115v491zM131 -216q-30 0 -49 18.5t-19 47.5t19 47t49 18t49 -18t19 -47t-19 -47.5t-49 -18.5z" />
    <glyph glyph-name="uni1ECC" unicode="&#x1ecc;" horiz-adv-x="671" 
d="M336 -12q-64 0 -117 23.5t-91.5 68t-59.5 107.5t-21 143q0 79 21 141.5t59.5 105.5t91.5 66t117 23t117 -23t91 -66t59 -105.5t21 -141.5q0 -80 -21 -143t-59 -107.5t-91 -68t-117 -23.5zM336 89q38 0 69.5 17t53.5 48.5t34 76t12 99.5q0 110 -46 172.5t-123 62.5
q-78 0 -124 -62.5t-46 -172.5q0 -55 12 -99.5t34.5 -76t53.5 -48.5t70 -17zM335 -216q-30 0 -49 18.5t-19 47.5t19 47t49 18t49 -18t19 -47t-19 -47.5t-49 -18.5z" />
    <glyph glyph-name="uni1ECD" unicode="&#x1ecd;" horiz-adv-x="549" 
d="M41 245q0 61 19 109t51.5 81t74.5 50.5t88 17.5t88.5 -17.5t74.5 -50.5t51.5 -81t19.5 -109t-19.5 -109t-51.5 -81t-74.5 -50t-88.5 -17t-88 17t-74.5 50t-51.5 81t-19 109zM159 245q0 -74 30.5 -118.5t84.5 -44.5t85 44.5t31 118.5q0 75 -31 119.5t-85 44.5t-84.5 -44.5
t-30.5 -119.5zM274 -216q-30 0 -49 18.5t-19 47.5t19 47t49 18t49 -18t19 -47t-19 -47.5t-49 -18.5z" />
    <glyph glyph-name="uni1ECE" unicode="&#x1ece;" horiz-adv-x="671" 
d="M336 -12q-64 0 -117 23.5t-91.5 68t-59.5 107.5t-21 143q0 79 21 141.5t59.5 105.5t91.5 66t117 23t117 -23t91 -66t59 -105.5t21 -141.5q0 -80 -21 -143t-59 -107.5t-91 -68t-117 -23.5zM336 89q38 0 69.5 17t53.5 48.5t34 76t12 99.5q0 110 -46 172.5t-123 62.5
q-78 0 -124 -62.5t-46 -172.5q0 -55 12 -99.5t34.5 -76t53.5 -48.5t70 -17zM293 743q21 5 35.5 13t14.5 24q0 17 -19 26.5t-62 11.5l13 61q80 -2 117 -24.5t37 -61.5q0 -24 -10.5 -41t-27.5 -29t-40 -19t-48 -10z" />
    <glyph glyph-name="uni1ECF" unicode="&#x1ecf;" horiz-adv-x="549" 
d="M41 245q0 61 19 109t51.5 81t74.5 50.5t88 17.5t88.5 -17.5t74.5 -50.5t51.5 -81t19.5 -109t-19.5 -109t-51.5 -81t-74.5 -50t-88.5 -17t-88 17t-74.5 50t-51.5 81t-19 109zM159 245q0 -74 30.5 -118.5t84.5 -44.5t85 44.5t31 118.5q0 75 -31 119.5t-85 44.5t-84.5 -44.5
t-30.5 -119.5zM232 603q21 5 35.5 13t14.5 25t-19 26.5t-62 11.5l13 61q80 -3 117 -25t37 -62q0 -24 -10.5 -41t-27.5 -28.5t-40 -18.5t-48 -10z" />
    <glyph glyph-name="uni1ED0" unicode="&#x1ed0;" horiz-adv-x="671" 
d="M336 -12q-64 0 -117 23.5t-91.5 68t-59.5 107.5t-21 143q0 79 21 141.5t59.5 105.5t91.5 66t117 23t117 -23t91 -66t59 -105.5t21 -141.5q0 -80 -21 -143t-59 -107.5t-91 -68t-117 -23.5zM336 89q38 0 69.5 17t53.5 48.5t34 76t12 99.5q0 110 -46 172.5t-123 62.5
q-78 0 -124 -62.5t-46 -172.5q0 -55 12 -99.5t34.5 -76t53.5 -48.5t70 -17zM507 886h93l-95 -116h-68zM285 814h100l94 -110h-84l-58 58h-4l-58 -58h-84z" />
    <glyph glyph-name="uni1ED1" unicode="&#x1ed1;" horiz-adv-x="549" 
d="M41 245q0 61 19 109t51.5 81t74.5 50.5t88 17.5t88.5 -17.5t74.5 -50.5t51.5 -81t19.5 -109t-19.5 -109t-51.5 -81t-74.5 -50t-88.5 -17t-88 17t-74.5 50t-51.5 81t-19 109zM159 245q0 -74 30.5 -118.5t84.5 -44.5t85 44.5t31 118.5q0 75 -31 119.5t-85 44.5t-84.5 -44.5
t-30.5 -119.5zM228 697h92l82 -124h-74l-52 69h-4l-52 -69h-74zM443 759h89l-93 -116h-67z" />
    <glyph glyph-name="uni1ED2" unicode="&#x1ed2;" horiz-adv-x="671" 
d="M336 -12q-64 0 -117 23.5t-91.5 68t-59.5 107.5t-21 143q0 79 21 141.5t59.5 105.5t91.5 66t117 23t117 -23t91 -66t59 -105.5t21 -141.5q0 -80 -21 -143t-59 -107.5t-91 -68t-117 -23.5zM336 89q38 0 69.5 17t53.5 48.5t34 76t12 99.5q0 110 -46 172.5t-123 62.5
q-78 0 -124 -62.5t-46 -172.5q0 -55 12 -99.5t34.5 -76t53.5 -48.5t70 -17zM546 770h-68l-94 116h93zM285 814h100l94 -110h-84l-58 58h-4l-58 -58h-84z" />
    <glyph glyph-name="uni1ED3" unicode="&#x1ed3;" horiz-adv-x="549" 
d="M41 245q0 61 19 109t51.5 81t74.5 50.5t88 17.5t88.5 -17.5t74.5 -50.5t51.5 -81t19.5 -109t-19.5 -109t-51.5 -81t-74.5 -50t-88.5 -17t-88 17t-74.5 50t-51.5 81t-19 109zM159 245q0 -74 30.5 -118.5t84.5 -44.5t85 44.5t31 118.5q0 75 -31 119.5t-85 44.5t-84.5 -44.5
t-30.5 -119.5zM228 697h92l82 -124h-74l-52 69h-4l-52 -69h-74zM500 643h-67l-94 116h90z" />
    <glyph glyph-name="uni1ED4" unicode="&#x1ed4;" horiz-adv-x="671" 
d="M336 -12q-64 0 -117 23.5t-91.5 68t-59.5 107.5t-21 143q0 79 21 141.5t59.5 105.5t91.5 66t117 23t117 -23t91 -66t59 -105.5t21 -141.5q0 -80 -21 -143t-59 -107.5t-91 -68t-117 -23.5zM336 89q38 0 69.5 17t53.5 48.5t34 76t12 99.5q0 110 -46 172.5t-123 62.5
q-78 0 -124 -62.5t-46 -172.5q0 -55 12 -99.5t34.5 -76t53.5 -48.5t70 -17zM450 793q17 4 28 11t11 21q0 17 -15.5 25t-52.5 10l11 52q71 -3 102 -23t31 -54q0 -41 -30.5 -60t-73.5 -23zM285 814h100l94 -110h-84l-58 58h-4l-58 -58h-84z" />
    <glyph glyph-name="uni1ED5" unicode="&#x1ed5;" horiz-adv-x="549" 
d="M41 245q0 61 19 109t51.5 81t74.5 50.5t88 17.5t88.5 -17.5t74.5 -50.5t51.5 -81t19.5 -109t-19.5 -109t-51.5 -81t-74.5 -50t-88.5 -17t-88 17t-74.5 50t-51.5 81t-19 109zM159 245q0 -74 30.5 -118.5t84.5 -44.5t85 44.5t31 118.5q0 75 -31 119.5t-85 44.5t-84.5 -44.5
t-30.5 -119.5zM228 697h92l82 -124h-74l-52 69h-4l-52 -69h-74zM392 670q16 5 26 12.5t10 21.5q0 17 -14.5 26t-52.5 11l10 52q71 -2 103 -22t32 -55q0 -22 -8.5 -37t-23 -25t-33.5 -16t-40 -10z" />
    <glyph glyph-name="uni1ED6" unicode="&#x1ed6;" horiz-adv-x="671" 
d="M336 -12q-64 0 -117 23.5t-91.5 68t-59.5 107.5t-21 143q0 79 21 141.5t59.5 105.5t91.5 66t117 23t117 -23t91 -66t59 -105.5t21 -141.5q0 -80 -21 -143t-59 -107.5t-91 -68t-117 -23.5zM336 89q38 0 69.5 17t53.5 48.5t34 76t12 99.5q0 110 -46 172.5t-123 62.5
q-78 0 -124 -62.5t-46 -172.5q0 -55 12 -99.5t34.5 -76t53.5 -48.5t70 -17zM285 814h100l94 -110h-84l-58 58h-4l-58 -58h-84zM194 849q5 50 28.5 77t57.5 27q18 0 32.5 -6.5t26.5 -14.5t23 -14.5t22 -6.5q14 0 24 10.5t14 31.5h54q-5 -50 -28.5 -77t-57.5 -27
q-18 0 -32.5 6.5t-26.5 14.5t-23 14.5t-22 6.5q-14 0 -24 -10.5t-14 -31.5h-54z" />
    <glyph glyph-name="uni1ED7" unicode="&#x1ed7;" horiz-adv-x="549" 
d="M41 245q0 61 19 109t51.5 81t74.5 50.5t88 17.5t88.5 -17.5t74.5 -50.5t51.5 -81t19.5 -109t-19.5 -109t-51.5 -81t-74.5 -50t-88.5 -17t-88 17t-74.5 50t-51.5 81t-19 109zM159 245q0 -74 30.5 -118.5t84.5 -44.5t85 44.5t31 118.5q0 75 -31 119.5t-85 44.5t-84.5 -44.5
t-30.5 -119.5zM222 680h104l84 -108h-77l-57 62h-4l-57 -62h-77zM136 716q5 50 27.5 76t56.5 26q19 0 33.5 -6.5t26 -14t21.5 -13.5t21 -6q29 0 38 40h52q-5 -50 -27.5 -76t-56.5 -26q-20 0 -34 6t-25.5 13.5t-21.5 14t-21 6.5q-29 0 -38 -40h-52z" />
    <glyph glyph-name="uni1ED8" unicode="&#x1ed8;" horiz-adv-x="671" 
d="M336 -12q-64 0 -117 23.5t-91.5 68t-59.5 107.5t-21 143q0 79 21 141.5t59.5 105.5t91.5 66t117 23t117 -23t91 -66t59 -105.5t21 -141.5q0 -80 -21 -143t-59 -107.5t-91 -68t-117 -23.5zM336 89q38 0 69.5 17t53.5 48.5t34 76t12 99.5q0 110 -46 172.5t-123 62.5
q-78 0 -124 -62.5t-46 -172.5q0 -55 12 -99.5t34.5 -76t53.5 -48.5t70 -17zM183 704l96 116h112l96 -116h-90l-60 64h-4l-60 -64h-90zM335 -216q-30 0 -49 18.5t-19 47.5t19 47t49 18t49 -18t19 -47t-19 -47.5t-49 -18.5z" />
    <glyph glyph-name="uni1ED9" unicode="&#x1ed9;" horiz-adv-x="549" 
d="M41 245q0 61 19 109t51.5 81t74.5 50.5t88 17.5t88.5 -17.5t74.5 -50.5t51.5 -81t19.5 -109t-19.5 -109t-51.5 -81t-74.5 -50t-88.5 -17t-88 17t-74.5 50t-51.5 81t-19 109zM159 245q0 -74 30.5 -118.5t84.5 -44.5t85 44.5t31 118.5q0 75 -31 119.5t-85 44.5t-84.5 -44.5
t-30.5 -119.5zM228 719h92l96 -146h-80l-60 85h-4l-60 -85h-80zM274 -216q-30 0 -49 18.5t-19 47.5t19 47t49 18t49 -18t19 -47t-19 -47.5t-49 -18.5z" />
    <glyph glyph-name="uni1EDA" unicode="&#x1eda;" horiz-adv-x="671" 
d="M336 89q38 0 69.5 17t53.5 48.5t34 76t12 99.5q0 110 -46 172.5t-123 62.5q-78 0 -124 -62.5t-46 -172.5q0 -55 12 -99.5t34.5 -76t53.5 -48.5t70 -17zM606 778q11 -14 18.5 -32t7.5 -40q0 -46 -28 -73t-75 -40q45 -44 70 -110t25 -153q0 -80 -21 -143t-59 -107.5
t-91 -68t-117 -23.5t-117 23.5t-91.5 68t-59.5 107.5t-21 143q0 79 21 141.5t59.5 105.5t91.5 66t117 23q75 0 135 -31q35 7 52.5 21t17.5 42q0 13 -4.5 24t-10.5 20zM365 704h-93l84 116h126z" />
    <glyph glyph-name="uni1EDB" unicode="&#x1edb;" horiz-adv-x="549" 
d="M274 82q54 0 85 44.5t31 118.5q0 75 -31 119.5t-85 44.5t-84.5 -44.5t-30.5 -119.5q0 -74 30.5 -118.5t84.5 -44.5zM498 626q11 -14 19 -32.5t8 -40.5q0 -46 -28 -72.5t-67 -38.5q35 -33 56.5 -82.5t21.5 -114.5q0 -61 -19.5 -109t-51.5 -81t-74.5 -50t-88.5 -17t-88 17
t-74.5 50t-51.5 81t-19 109t19 109t51.5 81t74.5 50.5t88 17.5q50 0 95 -20q30 5 47.5 19.5t17.5 42.5q0 13 -4.5 24t-11.5 20zM286 573h-86l90 146h114z" />
    <glyph glyph-name="uni1EDC" unicode="&#x1edc;" horiz-adv-x="671" 
d="M336 89q38 0 69.5 17t53.5 48.5t34 76t12 99.5q0 110 -46 172.5t-123 62.5q-78 0 -124 -62.5t-46 -172.5q0 -55 12 -99.5t34.5 -76t53.5 -48.5t70 -17zM606 778q11 -14 18.5 -32t7.5 -40q0 -46 -28 -73t-75 -40q45 -44 70 -110t25 -153q0 -80 -21 -143t-59 -107.5
t-91 -68t-117 -23.5t-117 23.5t-91.5 68t-59.5 107.5t-21 143q0 79 21 141.5t59.5 105.5t91.5 66t117 23q75 0 135 -31q35 7 52.5 21t17.5 42q0 13 -4.5 24t-10.5 20zM188 820h126l84 -116h-93z" />
    <glyph glyph-name="uni1EDD" unicode="&#x1edd;" horiz-adv-x="549" 
d="M274 82q54 0 85 44.5t31 118.5q0 75 -31 119.5t-85 44.5t-84.5 -44.5t-30.5 -119.5q0 -74 30.5 -118.5t84.5 -44.5zM498 626q11 -14 19 -32.5t8 -40.5q0 -46 -28 -72.5t-67 -38.5q35 -33 56.5 -82.5t21.5 -114.5q0 -61 -19.5 -109t-51.5 -81t-74.5 -50t-88.5 -17t-88 17
t-74.5 50t-51.5 81t-19 109t19 109t51.5 81t74.5 50.5t88 17.5q50 0 95 -20q30 5 47.5 19.5t17.5 42.5q0 13 -4.5 24t-11.5 20zM144 719h114l90 -146h-86z" />
    <glyph glyph-name="uni1EDE" unicode="&#x1ede;" horiz-adv-x="671" 
d="M336 89q38 0 69.5 17t53.5 48.5t34 76t12 99.5q0 110 -46 172.5t-123 62.5q-78 0 -124 -62.5t-46 -172.5q0 -55 12 -99.5t34.5 -76t53.5 -48.5t70 -17zM606 778q11 -14 18.5 -32t7.5 -40q0 -46 -28 -73t-75 -40q45 -44 70 -110t25 -153q0 -80 -21 -143t-59 -107.5
t-91 -68t-117 -23.5t-117 23.5t-91.5 68t-59.5 107.5t-21 143q0 79 21 141.5t59.5 105.5t91.5 66t117 23q75 0 135 -31q35 7 52.5 21t17.5 42q0 13 -4.5 24t-10.5 20zM293 743q21 5 35.5 13t14.5 24q0 17 -19 26.5t-62 11.5l13 61q80 -2 117 -24.5t37 -61.5q0 -24 -10.5 -41
t-27.5 -29t-40 -19t-48 -10z" />
    <glyph glyph-name="uni1EDF" unicode="&#x1edf;" horiz-adv-x="549" 
d="M274 82q54 0 85 44.5t31 118.5q0 75 -31 119.5t-85 44.5t-84.5 -44.5t-30.5 -119.5q0 -74 30.5 -118.5t84.5 -44.5zM498 626q11 -14 19 -32.5t8 -40.5q0 -46 -28 -72.5t-67 -38.5q35 -33 56.5 -82.5t21.5 -114.5q0 -61 -19.5 -109t-51.5 -81t-74.5 -50t-88.5 -17t-88 17
t-74.5 50t-51.5 81t-19 109t19 109t51.5 81t74.5 50.5t88 17.5q50 0 95 -20q30 5 47.5 19.5t17.5 42.5q0 13 -4.5 24t-11.5 20zM232 603q21 5 35.5 13t14.5 25t-19 26.5t-62 11.5l13 61q80 -3 117 -25t37 -62q0 -24 -10.5 -41t-27.5 -28.5t-40 -18.5t-48 -10z" />
    <glyph glyph-name="uni1EE0" unicode="&#x1ee0;" horiz-adv-x="671" 
d="M336 89q38 0 69.5 17t53.5 48.5t34 76t12 99.5q0 110 -46 172.5t-123 62.5q-78 0 -124 -62.5t-46 -172.5q0 -55 12 -99.5t34.5 -76t53.5 -48.5t70 -17zM606 778q11 -14 18.5 -32t7.5 -40q0 -46 -28 -73t-75 -40q45 -44 70 -110t25 -153q0 -80 -21 -143t-59 -107.5
t-91 -68t-117 -23.5t-117 23.5t-91.5 68t-59.5 107.5t-21 143q0 79 21 141.5t59.5 105.5t91.5 66t117 23q75 0 135 -31q35 7 52.5 21t17.5 42q0 13 -4.5 24t-10.5 20zM397 707q-20 0 -36.5 7.5t-31 17t-27 17t-25.5 7.5q-14 0 -24 -12t-15 -37h-61q6 58 32 90t64 32
q20 0 36.5 -7.5t31 -16.5t27 -16.5t25.5 -7.5q14 0 24 11.5t15 36.5h61q-6 -57 -32 -89.5t-64 -32.5z" />
    <glyph glyph-name="uni1EE1" unicode="&#x1ee1;" horiz-adv-x="549" 
d="M274 82q54 0 85 44.5t31 118.5q0 75 -31 119.5t-85 44.5t-84.5 -44.5t-30.5 -119.5q0 -74 30.5 -118.5t84.5 -44.5zM498 626q11 -14 19 -32.5t8 -40.5q0 -46 -28 -72.5t-67 -38.5q35 -33 56.5 -82.5t21.5 -114.5q0 -61 -19.5 -109t-51.5 -81t-74.5 -50t-88.5 -17t-88 17
t-74.5 50t-51.5 81t-19 109t19 109t51.5 81t74.5 50.5t88 17.5q50 0 95 -20q30 5 47.5 19.5t17.5 42.5q0 13 -4.5 24t-11.5 20zM121 577q6 57 30.5 89t62.5 32q19 0 35.5 -7.5t30.5 -16.5t26 -16.5t24 -7.5q26 0 36 48h61q-6 -57 -30.5 -89t-62.5 -32q-20 0 -36 7.5
t-29.5 16.5t-26 16.5t-24.5 7.5q-26 0 -36 -48h-61v0z" />
    <glyph glyph-name="uni1EE2" unicode="&#x1ee2;" horiz-adv-x="671" 
d="M336 89q38 0 69.5 17t53.5 48.5t34 76t12 99.5q0 110 -46 172.5t-123 62.5q-78 0 -124 -62.5t-46 -172.5q0 -55 12 -99.5t34.5 -76t53.5 -48.5t70 -17zM606 778q11 -14 18.5 -32t7.5 -40q0 -46 -28 -73t-75 -40q45 -44 70 -110t25 -153q0 -80 -21 -143t-59 -107.5
t-91 -68t-117 -23.5t-117 23.5t-91.5 68t-59.5 107.5t-21 143q0 79 21 141.5t59.5 105.5t91.5 66t117 23q75 0 135 -31q35 7 52.5 21t17.5 42q0 13 -4.5 24t-10.5 20zM335 -216q-30 0 -49 18.5t-19 47.5t19 47t49 18t49 -18t19 -47t-19 -47.5t-49 -18.5z" />
    <glyph glyph-name="uni1EE3" unicode="&#x1ee3;" horiz-adv-x="549" 
d="M274 82q54 0 85 44.5t31 118.5q0 75 -31 119.5t-85 44.5t-84.5 -44.5t-30.5 -119.5q0 -74 30.5 -118.5t84.5 -44.5zM498 626q11 -14 19 -32.5t8 -40.5q0 -46 -28 -72.5t-67 -38.5q35 -33 56.5 -82.5t21.5 -114.5q0 -61 -19.5 -109t-51.5 -81t-74.5 -50t-88.5 -17t-88 17
t-74.5 50t-51.5 81t-19 109t19 109t51.5 81t74.5 50.5t88 17.5q50 0 95 -20q30 5 47.5 19.5t17.5 42.5q0 13 -4.5 24t-11.5 20zM274 -216q-30 0 -49 18.5t-19 47.5t19 47t49 18t49 -18t19 -47t-19 -47.5t-49 -18.5z" />
    <glyph glyph-name="uni1EE4" unicode="&#x1ee4;" horiz-adv-x="652" 
d="M78 654h116v-376q0 -53 9.5 -89.5t27 -58.5t42 -31.5t54.5 -9.5t55 9.5t42.5 31.5t27.5 58.5t10 89.5v376h112v-367q0 -81 -17.5 -137.5t-49.5 -92.5t-77.5 -52.5t-102.5 -16.5t-103 16.5t-78.5 52.5t-50 92.5t-17.5 137.5v367zM326 -216q-30 0 -49 18.5t-19 47.5t19 47
t49 18t49 -18t19 -47t-19 -47.5t-49 -18.5z" />
    <glyph glyph-name="uni1EE5" unicode="&#x1ee5;" horiz-adv-x="556" 
d="M68 491h115v-293q0 -61 18 -86t58 -25q32 0 56.5 16t52.5 52v336h115v-491h-94l-9 72h-3q-32 -38 -69.5 -61t-88.5 -23q-79 0 -115 50.5t-36 144.5v308zM297 -216q-30 0 -49 18.5t-19 47.5t19 47t49 18t49 -18t19 -47t-19 -47.5t-49 -18.5z" />
    <glyph glyph-name="uni1EE6" unicode="&#x1ee6;" horiz-adv-x="652" 
d="M78 654h116v-376q0 -53 9.5 -89.5t27 -58.5t42 -31.5t54.5 -9.5t55 9.5t42.5 31.5t27.5 58.5t10 89.5v376h112v-367q0 -81 -17.5 -137.5t-49.5 -92.5t-77.5 -52.5t-102.5 -16.5t-103 16.5t-78.5 52.5t-50 92.5t-17.5 137.5v367zM284 743q21 5 35.5 13t14.5 24
q0 17 -19 26.5t-62 11.5l13 61q80 -2 117 -24.5t37 -61.5q0 -24 -10.5 -41t-27.5 -29t-40 -19t-48 -10z" />
    <glyph glyph-name="uni1EE7" unicode="&#x1ee7;" horiz-adv-x="556" 
d="M68 491h115v-293q0 -61 18 -86t58 -25q32 0 56.5 16t52.5 52v336h115v-491h-94l-9 72h-3q-32 -38 -69.5 -61t-88.5 -23q-79 0 -115 50.5t-36 144.5v308zM237 603q21 5 35.5 13t14.5 25t-19 26.5t-62 11.5l13 61q80 -3 117 -25t37 -62q0 -24 -10.5 -41t-27.5 -28.5
t-40 -18.5t-48 -10z" />
    <glyph glyph-name="uni1EE8" unicode="&#x1ee8;" horiz-adv-x="668" 
d="M664 798q11 -14 19 -32t8 -40q0 -27 -9.5 -46.5t-25 -33.5t-37 -23t-45.5 -14v-322q0 -81 -17.5 -137.5t-49.5 -92.5t-77.5 -52.5t-102.5 -16.5t-103 16.5t-78.5 52.5t-50 92.5t-17.5 137.5v367h116v-376q0 -53 9.5 -89.5t27 -58.5t42 -31.5t54.5 -9.5t55 9.5t42.5 31.5
t27.5 58.5t10 89.5v376h53q17 1 32.5 4.5t27 11t18.5 19t7 29.5q0 13 -4.5 24t-11.5 20zM356 704h-93l84 116h126z" />
    <glyph glyph-name="uni1EE9" unicode="&#x1ee9;" horiz-adv-x="556" 
d="M550 636q11 -14 18.5 -32.5t7.5 -40.5q0 -23 -7.5 -41t-20.5 -31.5t-30 -22.5t-35 -15v-453h-94l-9 72h-3q-32 -38 -69.5 -61t-88.5 -23q-79 0 -115 50.5t-36 144.5v308h115v-293q0 -61 18 -86t58 -25q32 0 56.5 16t52.5 52v336h34q16 1 31 4.5t26.5 10.5t18.5 19t7 30
q0 13 -4.5 24t-10.5 20zM282 573h-86l90 146h114z" />
    <glyph glyph-name="uni1EEA" unicode="&#x1eea;" horiz-adv-x="668" 
d="M664 798q11 -14 19 -32t8 -40q0 -27 -9.5 -46.5t-25 -33.5t-37 -23t-45.5 -14v-322q0 -81 -17.5 -137.5t-49.5 -92.5t-77.5 -52.5t-102.5 -16.5t-103 16.5t-78.5 52.5t-50 92.5t-17.5 137.5v367h116v-376q0 -53 9.5 -89.5t27 -58.5t42 -31.5t54.5 -9.5t55 9.5t42.5 31.5
t27.5 58.5t10 89.5v376h53q17 1 32.5 4.5t27 11t18.5 19t7 29.5q0 13 -4.5 24t-11.5 20zM179 820h126l84 -116h-93z" />
    <glyph glyph-name="uni1EEB" unicode="&#x1eeb;" horiz-adv-x="556" 
d="M550 636q11 -14 18.5 -32.5t7.5 -40.5q0 -23 -7.5 -41t-20.5 -31.5t-30 -22.5t-35 -15v-453h-94l-9 72h-3q-32 -38 -69.5 -61t-88.5 -23q-79 0 -115 50.5t-36 144.5v308h115v-293q0 -61 18 -86t58 -25q32 0 56.5 16t52.5 52v336h34q16 1 31 4.5t26.5 10.5t18.5 19t7 30
q0 13 -4.5 24t-10.5 20zM140 719h114l90 -146h-86z" />
    <glyph glyph-name="uni1EEC" unicode="&#x1eec;" horiz-adv-x="668" 
d="M664 798q11 -14 19 -32t8 -40q0 -27 -9.5 -46.5t-25 -33.5t-37 -23t-45.5 -14v-322q0 -81 -17.5 -137.5t-49.5 -92.5t-77.5 -52.5t-102.5 -16.5t-103 16.5t-78.5 52.5t-50 92.5t-17.5 137.5v367h116v-376q0 -53 9.5 -89.5t27 -58.5t42 -31.5t54.5 -9.5t55 9.5t42.5 31.5
t27.5 58.5t10 89.5v376h53q17 1 32.5 4.5t27 11t18.5 19t7 29.5q0 13 -4.5 24t-11.5 20zM284 743q21 5 35.5 13t14.5 24q0 17 -19 26.5t-62 11.5l13 61q80 -2 117 -24.5t37 -61.5q0 -24 -10.5 -41t-27.5 -29t-40 -19t-48 -10z" />
    <glyph glyph-name="uni1EED" unicode="&#x1eed;" horiz-adv-x="556" 
d="M550 636q11 -14 18.5 -32.5t7.5 -40.5q0 -23 -7.5 -41t-20.5 -31.5t-30 -22.5t-35 -15v-453h-94l-9 72h-3q-32 -38 -69.5 -61t-88.5 -23q-79 0 -115 50.5t-36 144.5v308h115v-293q0 -61 18 -86t58 -25q32 0 56.5 16t52.5 52v336h34q16 1 31 4.5t26.5 10.5t18.5 19t7 30
q0 13 -4.5 24t-10.5 20zM228 603q21 5 35.5 13t14.5 25t-19 26.5t-62 11.5l13 61q80 -3 117 -25t37 -62q0 -24 -10.5 -41t-27.5 -28.5t-40 -18.5t-48 -10z" />
    <glyph glyph-name="uni1EEE" unicode="&#x1eee;" horiz-adv-x="668" 
d="M664 798q11 -14 19 -32t8 -40q0 -27 -9.5 -46.5t-25 -33.5t-37 -23t-45.5 -14v-322q0 -81 -17.5 -137.5t-49.5 -92.5t-77.5 -52.5t-102.5 -16.5t-103 16.5t-78.5 52.5t-50 92.5t-17.5 137.5v367h116v-376q0 -53 9.5 -89.5t27 -58.5t42 -31.5t54.5 -9.5t55 9.5t42.5 31.5
t27.5 58.5t10 89.5v376h53q17 1 32.5 4.5t27 11t18.5 19t7 29.5q0 13 -4.5 24t-11.5 20zM388 707q-20 0 -36.5 7.5t-31 17t-27 17t-25.5 7.5q-14 0 -24 -12t-15 -37h-61q6 58 32 90t64 32q20 0 36.5 -7.5t31 -16.5t27 -16.5t25.5 -7.5q14 0 24 11.5t15 36.5h61
q-6 -57 -32 -89.5t-64 -32.5z" />
    <glyph glyph-name="uni1EEF" unicode="&#x1eef;" horiz-adv-x="556" 
d="M550 636q11 -14 18.5 -32.5t7.5 -40.5q0 -23 -7.5 -41t-20.5 -31.5t-30 -22.5t-35 -15v-453h-94l-9 72h-3q-32 -38 -69.5 -61t-88.5 -23q-79 0 -115 50.5t-36 144.5v308h115v-293q0 -61 18 -86t58 -25q32 0 56.5 16t52.5 52v336h34q16 1 31 4.5t26.5 10.5t18.5 19t7 30
q0 13 -4.5 24t-10.5 20zM117 577q6 57 30.5 89t62.5 32q19 0 35.5 -7.5t30.5 -16.5t26 -16.5t24 -7.5q26 0 36 48h61q-6 -57 -30.5 -89t-62.5 -32q-20 0 -36 7.5t-29.5 16.5t-26 16.5t-24.5 7.5q-26 0 -36 -48h-61v0z" />
    <glyph glyph-name="uni1EF0" unicode="&#x1ef0;" horiz-adv-x="668" 
d="M664 798q11 -14 19 -32t8 -40q0 -27 -9.5 -46.5t-25 -33.5t-37 -23t-45.5 -14v-322q0 -81 -17.5 -137.5t-49.5 -92.5t-77.5 -52.5t-102.5 -16.5t-103 16.5t-78.5 52.5t-50 92.5t-17.5 137.5v367h116v-376q0 -53 9.5 -89.5t27 -58.5t42 -31.5t54.5 -9.5t55 9.5t42.5 31.5
t27.5 58.5t10 89.5v376h53q17 1 32.5 4.5t27 11t18.5 19t7 29.5q0 13 -4.5 24t-11.5 20zM326 -216q-30 0 -49 18.5t-19 47.5t19 47t49 18t49 -18t19 -47t-19 -47.5t-49 -18.5z" />
    <glyph glyph-name="uni1EF1" unicode="&#x1ef1;" horiz-adv-x="556" 
d="M550 636q11 -14 18.5 -32.5t7.5 -40.5q0 -23 -7.5 -41t-20.5 -31.5t-30 -22.5t-35 -15v-453h-94l-9 72h-3q-32 -38 -69.5 -61t-88.5 -23q-79 0 -115 50.5t-36 144.5v308h115v-293q0 -61 18 -86t58 -25q32 0 56.5 16t52.5 52v336h34q16 1 31 4.5t26.5 10.5t18.5 19t7 30
q0 13 -4.5 24t-10.5 20zM288 -216q-30 0 -49 18.5t-19 47.5t19 47t49 18t49 -18t19 -47t-19 -47.5t-49 -18.5z" />
    <glyph glyph-name="Ygrave" unicode="&#x1ef2;" horiz-adv-x="498" 
d="M191 243l-197 411h124l71 -167q14 -37 28.5 -71.5t29.5 -72.5h4q16 38 31.5 72.5t29.5 71.5l71 167h121l-197 -411v-243h-116v243zM102 820h126l84 -116h-93z" />
    <glyph glyph-name="ygrave" unicode="&#x1ef3;" horiz-adv-x="495" 
d="M63 -102q7 -2 16.5 -4.5t18.5 -2.5q39 0 62.5 23.5t35.5 60.5l9 31l-193 485h117l85 -241q11 -32 21.5 -67.5t21.5 -70.5h4q9 34 18.5 69.5t18.5 68.5l74 241h111l-178 -513q-15 -42 -33 -75t-41.5 -56.5t-54 -36t-70.5 -12.5q-20 0 -35 2.5t-29 7.5l21 90v0zM125 719
h114l90 -146h-86z" />
    <glyph glyph-name="uni1EF4" unicode="&#x1ef4;" horiz-adv-x="498" 
d="M191 243l-197 411h124l71 -167q14 -37 28.5 -71.5t29.5 -72.5h4q16 38 31.5 72.5t29.5 71.5l71 167h121l-197 -411v-243h-116v243zM251 -216q-30 0 -49 18.5t-19 47.5t19 47t49 18t49 -18t19 -47t-19 -47.5t-49 -18.5z" />
    <glyph glyph-name="uni1EF5" unicode="&#x1ef5;" horiz-adv-x="495" 
d="M63 -102q7 -2 16.5 -4.5t18.5 -2.5q39 0 62.5 23.5t35.5 60.5l9 31l-193 485h117l85 -241q11 -32 21.5 -67.5t21.5 -70.5h4q9 34 18.5 69.5t18.5 68.5l74 241h111l-178 -513q-15 -42 -33 -75t-41.5 -56.5t-54 -36t-70.5 -12.5q-20 0 -35 2.5t-29 7.5l21 90v0zM420 -210
q-30 0 -49 18.5t-19 47.5t19 47t49 18t49 -18t19 -47t-19 -47.5t-49 -18.5z" />
    <glyph glyph-name="uni1EF6" unicode="&#x1ef6;" horiz-adv-x="498" 
d="M191 243l-197 411h124l71 -167q14 -37 28.5 -71.5t29.5 -72.5h4q16 38 31.5 72.5t29.5 71.5l71 167h121l-197 -411v-243h-116v243zM207 743q21 5 35.5 13t14.5 24q0 17 -19 26.5t-62 11.5l13 61q80 -2 117 -24.5t37 -61.5q0 -24 -10.5 -41t-27.5 -29t-40 -19t-48 -10z
" />
    <glyph glyph-name="uni1EF7" unicode="&#x1ef7;" horiz-adv-x="495" 
d="M63 -102q7 -2 16.5 -4.5t18.5 -2.5q39 0 62.5 23.5t35.5 60.5l9 31l-193 485h117l85 -241q11 -32 21.5 -67.5t21.5 -70.5h4q9 34 18.5 69.5t18.5 68.5l74 241h111l-178 -513q-15 -42 -33 -75t-41.5 -56.5t-54 -36t-70.5 -12.5q-20 0 -35 2.5t-29 7.5l21 90v0zM213 603
q21 5 35.5 13t14.5 25t-19 26.5t-62 11.5l13 61q80 -3 117 -25t37 -62q0 -24 -10.5 -41t-27.5 -28.5t-40 -18.5t-48 -10z" />
    <glyph glyph-name="uni1EF8" unicode="&#x1ef8;" horiz-adv-x="498" 
d="M191 243l-197 411h124l71 -167q14 -37 28.5 -71.5t29.5 -72.5h4q16 38 31.5 72.5t29.5 71.5l71 167h121l-197 -411v-243h-116v243zM311 707q-20 0 -36.5 7.5t-31 17t-27 17t-25.5 7.5q-14 0 -24 -12t-15 -37h-61q6 58 32 90t64 32q20 0 36.5 -7.5t31 -16.5t27 -16.5
t25.5 -7.5q14 0 24 11.5t15 36.5h61q-6 -57 -32 -89.5t-64 -32.5z" />
    <glyph glyph-name="uni1EF9" unicode="&#x1ef9;" horiz-adv-x="495" 
d="M63 -102q7 -2 16.5 -4.5t18.5 -2.5q39 0 62.5 23.5t35.5 60.5l9 31l-193 485h117l85 -241q11 -32 21.5 -67.5t21.5 -70.5h4q9 34 18.5 69.5t18.5 68.5l74 241h111l-178 -513q-15 -42 -33 -75t-41.5 -56.5t-54 -36t-70.5 -12.5q-20 0 -35 2.5t-29 7.5l21 90v0zM102 577
q6 57 30.5 89t62.5 32q19 0 35.5 -7.5t30.5 -16.5t26 -16.5t24 -7.5q26 0 36 48h61q-6 -57 -30.5 -89t-62.5 -32q-20 0 -36 7.5t-29.5 16.5t-26 16.5t-24.5 7.5q-26 0 -36 -48h-61v0z" />
    <glyph glyph-name="uni2007" unicode="&#x2007;" horiz-adv-x="513" 
 />
    <glyph glyph-name="figuredash" unicode="&#x2012;" horiz-adv-x="513" 
d="M42 290h429v-76h-429v76z" />
    <glyph glyph-name="endash" unicode="&#x2013;" horiz-adv-x="480" 
d="M42 290h396v-76h-396v76z" />
    <glyph glyph-name="emdash" unicode="&#x2014;" horiz-adv-x="800" 
d="M42 290h716v-76h-716v76z" />
    <glyph glyph-name="uni2015" unicode="&#x2015;" horiz-adv-x="800" 
d="M42 290h716v-76h-716v76z" />
    <glyph glyph-name="quoteleft" unicode="&#x2018;" horiz-adv-x="275" 
d="M208 638q-42 -24 -62.5 -52.5t-20.5 -73.5q3 1 9 1q27 0 46.5 -16.5t19.5 -45.5q0 -32 -18.5 -50.5t-47.5 -18.5q-38 0 -58 29t-20 82q0 131 124 196z" />
    <glyph glyph-name="quoteright" unicode="&#x2019;" horiz-adv-x="275" 
d="M67 442q42 24 62.5 52.5t20.5 73.5q-3 -1 -9 -1q-26 0 -45.5 16.5t-19.5 45.5q0 32 18 50.5t47 18.5q38 0 58.5 -29t20.5 -82q0 -131 -125 -196z" />
    <glyph glyph-name="quotesinglbase" unicode="&#x201a;" horiz-adv-x="275" 
d="M67 -105q42 24 62.5 52.5t20.5 73.5q-3 -1 -9 -1q-26 0 -45.5 16.5t-19.5 45.5q0 32 18 50.5t47 18.5q38 0 58.5 -29t20.5 -82q0 -131 -125 -196z" />
    <glyph glyph-name="quotedblleft" unicode="&#x201c;" horiz-adv-x="482" 
d="M208 638q-42 -24 -62.5 -52.5t-20.5 -73.5q3 1 9 1q27 0 46.5 -16.5t19.5 -45.5q0 -32 -18.5 -50.5t-47.5 -18.5q-38 0 -58 29t-20 82q0 131 124 196zM415 638q-42 -24 -62.5 -52.5t-20.5 -73.5q3 1 9 1q27 0 46.5 -16.5t19.5 -45.5q0 -32 -18.5 -50.5t-47.5 -18.5
q-38 0 -58 29t-20 82q0 131 124 196z" />
    <glyph glyph-name="quotedblright" unicode="&#x201d;" horiz-adv-x="482" 
d="M67 442q42 24 62.5 52.5t20.5 73.5q-3 -1 -9 -1q-26 0 -45.5 16.5t-19.5 45.5q0 32 18 50.5t47 18.5q38 0 58.5 -29t20.5 -82q0 -131 -125 -196zM274 442q42 24 62.5 52.5t20.5 73.5q-3 -1 -9 -1q-26 0 -45.5 16.5t-19.5 45.5q0 32 18 50.5t47 18.5q38 0 58.5 -29
t20.5 -82q0 -131 -125 -196z" />
    <glyph glyph-name="quotedblbase" unicode="&#x201e;" horiz-adv-x="482" 
d="M67 -105q42 24 62.5 52.5t20.5 73.5q-3 -1 -9 -1q-26 0 -45.5 16.5t-19.5 45.5q0 32 18 50.5t47 18.5q38 0 58.5 -29t20.5 -82q0 -131 -125 -196zM274 -105q42 24 62.5 52.5t20.5 73.5q-3 -1 -9 -1q-26 0 -45.5 16.5t-19.5 45.5q0 32 18 50.5t47 18.5q38 0 58.5 -29
t20.5 -82q0 -131 -125 -196z" />
    <glyph glyph-name="dagger" unicode="&#x2020;" horiz-adv-x="482" 
d="M201 464l-152 -6v94l152 -7l-7 167h94l-6 -167l152 7v-94l-152 6l6 -544h-94z" />
    <glyph glyph-name="daggerdbl" unicode="&#x2021;" horiz-adv-x="482" 
d="M49 174l152 -9l-7 151l7 151l-152 -9v94l152 -7l-7 167h94l-6 -167l152 7v-94l-152 9l6 -151l-6 -151l152 9v-94l-152 7l6 -167h-94l7 167l-152 -7v94z" />
    <glyph glyph-name="bullet" unicode="&#x2022;" horiz-adv-x="325" 
d="M162 133q-25 0 -47.5 9.5t-39 27t-26 41t-9.5 52.5q0 28 9.5 52t26 41t39 27t47.5 10t47.5 -10t39.5 -27t26.5 -41t9.5 -52q0 -29 -9.5 -52.5t-26.5 -41t-39.5 -27t-47.5 -9.5z" />
    <glyph glyph-name="ellipsis" unicode="&#x2026;" horiz-adv-x="963" 
d="M85 66q0 34 21.5 56t53.5 22t53 -22t21 -56t-21 -56t-53 -22t-53.5 22t-21.5 56zM418 66q0 34 21.5 56t53.5 22t53 -22t21 -56t-21 -56t-53 -22t-53.5 22t-21.5 56zM751 66q0 34 21.5 56t53.5 22t53 -22t21 -56t-21 -56t-53 -22t-53.5 22t-21.5 56z" />
    <glyph glyph-name="perthousand" unicode="&#x2030;" horiz-adv-x="1222" 
d="M205 -12l357 678h70l-356 -678h-71zM186 252q-69 0 -112.5 54.5t-43.5 153.5t43.5 152.5t112.5 53.5t112.5 -53.5t43.5 -152.5t-43.5 -153.5t-112.5 -54.5zM186 319q32 0 52.5 33.5t20.5 107.5t-20.5 106.5t-52.5 32.5t-52.5 -32.5t-20.5 -106.5t20.5 -107.5t52.5 -33.5z
M654 -12q-69 0 -112.5 54.5t-43.5 153.5t43.5 152.5t112.5 53.5t112.5 -53.5t43.5 -152.5t-43.5 -153.5t-112.5 -54.5zM654 55q32 0 52.5 33.5t20.5 107.5t-20.5 106.5t-52.5 32.5t-53 -32.5t-21 -106.5t21 -107.5t53 -33.5zM1036 -12q-69 0 -112.5 54.5t-43.5 153.5
t43.5 152.5t112.5 53.5t112.5 -53.5t43.5 -152.5t-43.5 -153.5t-112.5 -54.5zM1036 55q32 0 52.5 33.5t20.5 107.5t-20.5 106.5t-52.5 32.5t-52.5 -32.5t-20.5 -106.5t20.5 -107.5t52.5 -33.5z" />
    <glyph glyph-name="uni2032" unicode="&#x2032;" horiz-adv-x="275" 
d="M102 688h115l-21 -123l-41 -171h-75z" />
    <glyph glyph-name="uni2033" unicode="&#x2033;" horiz-adv-x="482" 
d="M102 688h115l-21 -123l-41 -171h-75zM309 688h115l-21 -123l-41 -171h-75z" />
    <glyph glyph-name="guilsinglleft" unicode="&#x2039;" horiz-adv-x="282" 
d="M47 210v84l135 149l46 -37l-115 -154l115 -155l-46 -36z" />
    <glyph glyph-name="guilsinglright" unicode="&#x203a;" horiz-adv-x="282" 
d="M168 252l-114 154l45 37l136 -149v-84l-136 -149l-45 36z" />
    <glyph glyph-name="fraction" unicode="&#x2044;" horiz-adv-x="91" 
d="M-169 -12l357 678h70l-356 -678h-71z" />
    <glyph glyph-name="zero.sups" unicode="&#x2070;" horiz-adv-x="372" 
d="M186 428q-69 0 -112.5 54.5t-43.5 153.5t43.5 152.5t112.5 53.5t112.5 -53.5t43.5 -152.5t-43.5 -153.5t-112.5 -54.5zM186 495q32 0 52.5 33.5t20.5 107.5t-20.5 106.5t-52.5 32.5t-52.5 -32.5t-20.5 -106.5t20.5 -107.5t52.5 -33.5z" />
    <glyph glyph-name="i.sups" unicode="&#x2071;" horiz-adv-x="177" 
d="M89 639q-23 0 -37 13t-14 33t14 33t37 13q22 0 36.5 -13t14.5 -33t-14.5 -33t-36.5 -13zM47 586h83v-326h-83v326z" />
    <glyph glyph-name="four.sups" unicode="&#x2074;" horiz-adv-x="372" 
d="M217 594v55l5 113h-4l-45 -79l-51 -89h95zM352 535h-58v-95h-77v95h-179v44l152 251h104v-236h58v-59z" />
    <glyph glyph-name="five.sups" unicode="&#x2075;" horiz-adv-x="372" 
d="M85 548q19 -26 41 -39.5t51 -13.5t48.5 20.5t19.5 51.5q0 34 -20 53t-50 19q-20 0 -35.5 -7.5t-30.5 -19.5l-39 27l18 191h225v-74h-156l-8 -74q14 5 28 7.5t26 2.5q26 0 49 -8.5t40.5 -25t27.5 -40.5t10 -55q0 -30 -11 -54.5t-30 -42.5t-46 -28t-58 -10q-52 0 -90.5 21
t-63.5 57z" />
    <glyph glyph-name="six.sups" unicode="&#x2076;" horiz-adv-x="372" 
d="M196 495q25 0 42 17t17 49q0 30 -16 48t-47 18q-19 0 -36 -8t-36 -28q5 -50 26 -73t50 -23zM288 750q-15 11 -31 18t-36 7q-44 0 -70 -32t-31 -94q38 38 91 38q58 0 90 -33.5t32 -90.5q0 -29 -10.5 -53.5t-28.5 -42.5t-42.5 -28.5t-52.5 -10.5q-75 0 -117 54t-42 147
q0 102 48 157.5t128 55.5q38 0 63.5 -11t42.5 -25z" />
    <glyph glyph-name="seven.sups" unicode="&#x2077;" horiz-adv-x="372" 
d="M124 440q3 48 11 89t21.5 78.5t33.5 74t47 75.5h-187v73h284v-47q-35 -44 -56.5 -84t-34.5 -81t-19 -84.5t-9 -93.5h-91v0z" />
    <glyph glyph-name="eight.sups" unicode="&#x2078;" horiz-adv-x="372" 
d="M121 546q0 -23 17.5 -40.5t46.5 -17.5q27 0 46 17t19 40q0 15 -7 25t-19 17.5t-27.5 13.5t-32.5 14q-43 -26 -43 -69zM205 670q33 30 33 62q0 23 -15.5 35.5t-37.5 12.5q-21 0 -36 -12.5t-15 -32.5q0 -26 20.5 -40t50.5 -25zM42 538q0 35 22.5 62t49.5 43v4
q-26 17 -42 38t-16 52q0 24 10 43.5t27.5 33t41 21t50.5 7.5q56 0 93.5 -28t37.5 -77q0 -31 -18.5 -53.5t-40.5 -36.5v-4q32 -17 52 -42t20 -61q0 -24 -11 -44.5t-30 -35.5t-45.5 -23.5t-57.5 -8.5q-32 0 -58.5 8.5t-45 23.5t-29 35t-10.5 43z" />
    <glyph glyph-name="nine.sups" unicode="&#x2079;" horiz-adv-x="372" 
d="M178 643q18 0 35.5 8t36.5 27q-5 51 -26 74t-50 23q-25 0 -42 -17t-17 -49q0 -30 16.5 -48t46.5 -18zM83 520q14 -11 30 -18t37 -7q43 0 69 32t31 93q-39 -37 -91 -37q-57 0 -89.5 33.5t-32.5 90.5q0 29 10 53.5t28 42.5t42.5 28.5t53.5 10.5q75 0 117 -54t42 -147
q0 -102 -48 -157.5t-128 -55.5q-38 0 -63 11t-43 25z" />
    <glyph glyph-name="parenleft.sups" unicode="&#x207d;" horiz-adv-x="253" 
d="M153 356q-43 63 -66 127.5t-23 151.5t23 151.5t66 127.5l63 -27q-36 -60 -53 -122.5t-17 -129.5t17 -129.5t53 -122.5l-63 -27v0z" />
    <glyph glyph-name="parenright.sups" unicode="&#x207e;" horiz-adv-x="253" 
d="M37 383q36 60 52.5 122.5t16.5 129.5t-16.5 129.5t-52.5 122.5l63 27q43 -63 66 -127.5t23 -151.5t-23 -151.5t-66 -127.5l-63 27v0z" />
    <glyph glyph-name="n.sups" unicode="&#x207f;" horiz-adv-x="376" 
d="M47 586h66l8 -45h3q20 22 47 37.5t60 15.5q56 0 79.5 -36.5t23.5 -94.5v-203h-84v192q0 35 -9 53t-40 18q-18 0 -34.5 -9.5t-36.5 -29.5v-224h-83v326z" />
    <glyph glyph-name="zero.subs" unicode="&#x2080;" horiz-adv-x="372" 
d="M186 -242q-69 0 -112.5 54.5t-43.5 153.5t43.5 152.5t112.5 53.5t112.5 -53.5t43.5 -152.5t-43.5 -153.5t-112.5 -54.5zM186 -175q32 0 52.5 33.5t20.5 107.5t-20.5 106.5t-52.5 32.5t-52.5 -32.5t-20.5 -106.5t20.5 -107.5t52.5 -33.5z" />
    <glyph glyph-name="one.subs" unicode="&#x2081;" horiz-adv-x="372" 
d="M168 64h-86v54q37 6 59 15.5t45 26.5h69v-390h-87v294z" />
    <glyph glyph-name="two.subs" unicode="&#x2082;" horiz-adv-x="372" 
d="M48 -182q84 72 131 121t47 90q0 33 -17.5 52t-48.5 19q-22 0 -41 -14.5t-36 -37.5l-50 46q26 37 62 57.5t78 20.5q62 0 99.5 -33t37.5 -96q0 -26 -9.5 -50t-26.5 -48.5t-39.5 -49.5t-48.5 -52h141v-73h-279v48z" />
    <glyph glyph-name="three.subs" unicode="&#x2083;" horiz-adv-x="372" 
d="M85 -122q36 -53 91 -53q28 0 47.5 15t19.5 43q0 29 -27.5 44.5t-79.5 15.5v51q43 0 67.5 16t24.5 44q0 23 -16 37t-43 14q-20 0 -38.5 -12t-33.5 -31l-50 44q29 32 60.5 49t75.5 17q26 0 49.5 -7.5t41.5 -21t28.5 -33.5t10.5 -45q0 -33 -16.5 -55.5t-45.5 -37.5
q32 -11 54.5 -34.5t22.5 -60.5q0 -27 -11.5 -49t-31.5 -37.5t-46.5 -24t-55.5 -8.5q-50 0 -89 21t-63 57z" />
    <glyph glyph-name="four.subs" unicode="&#x2084;" horiz-adv-x="372" 
d="M217 -76v55l5 113h-4l-45 -79l-51 -89h95zM352 -135h-58v-95h-77v95h-179v44l152 251h104v-236h58v-59z" />
    <glyph glyph-name="five.subs" unicode="&#x2085;" horiz-adv-x="372" 
d="M85 -122q19 -26 41 -39.5t51 -13.5t48.5 20.5t19.5 51.5q0 34 -20 53t-50 19q-20 0 -35.5 -7.5t-30.5 -19.5l-39 27l18 191h225v-74h-156l-8 -74q14 5 28 7.5t26 2.5q26 0 49 -8.5t40.5 -25t27.5 -40.5t10 -55q0 -30 -11 -54.5t-30 -42.5t-46 -28t-58 -10q-52 0 -90.5 21
t-63.5 57z" />
    <glyph glyph-name="six.subs" unicode="&#x2086;" horiz-adv-x="372" 
d="M196 -175q25 0 42 17t17 49q0 30 -16 48t-47 18q-19 0 -36 -8t-36 -28q5 -50 26 -73t50 -23zM288 80q-15 11 -31 18t-36 7q-44 0 -70 -32t-31 -94q38 38 91 38q58 0 90 -33.5t32 -90.5q0 -29 -10.5 -53.5t-28.5 -42.5t-42.5 -28.5t-52.5 -10.5q-75 0 -117 54t-42 147
q0 102 48 157.5t128 55.5q38 0 63.5 -11t42.5 -25z" />
    <glyph glyph-name="seven.subs" unicode="&#x2087;" horiz-adv-x="372" 
d="M124 -230q3 48 11 89t21.5 78.5t33.5 74t47 75.5h-187v73h284v-47q-35 -44 -56.5 -84t-34.5 -81t-19 -84.5t-9 -93.5h-91v0z" />
    <glyph glyph-name="eight.subs" unicode="&#x2088;" horiz-adv-x="372" 
d="M121 -124q0 -23 17.5 -40.5t46.5 -17.5q27 0 46 17t19 40q0 15 -7 25t-19 17.5t-27.5 13.5t-32.5 14q-43 -26 -43 -69zM205 0q33 30 33 62q0 23 -15.5 35.5t-37.5 12.5q-21 0 -36 -12.5t-15 -32.5q0 -26 20.5 -40t50.5 -25zM42 -132q0 35 22.5 62t49.5 43v4
q-26 17 -42 38t-16 52q0 24 10 43.5t27.5 33t41 21t50.5 7.5q56 0 93.5 -28t37.5 -77q0 -31 -18.5 -53.5t-40.5 -36.5v-4q32 -17 52 -42t20 -61q0 -24 -11 -44.5t-30 -35.5t-45.5 -23.5t-57.5 -8.5q-32 0 -58.5 8.5t-45 23.5t-29 35t-10.5 43z" />
    <glyph glyph-name="nine.subs" unicode="&#x2089;" horiz-adv-x="372" 
d="M178 -27q18 0 35.5 8t36.5 27q-5 51 -26 74t-50 23q-25 0 -42 -17t-17 -49q0 -30 16.5 -48t46.5 -18zM83 -150q14 -11 30 -18t37 -7q43 0 69 32t31 93q-39 -37 -91 -37q-57 0 -89.5 33.5t-32.5 90.5q0 29 10 53.5t28 42.5t42.5 28.5t53.5 10.5q75 0 117 -54t42 -147
q0 -102 -48 -157.5t-128 -55.5q-38 0 -63 11t-43 25z" />
    <glyph glyph-name="parenleft.subs" unicode="&#x208d;" horiz-adv-x="253" 
d="M153 -314q-43 63 -66 127.5t-23 151.5t23 151.5t66 127.5l63 -27q-36 -60 -53 -122.5t-17 -129.5t17 -129.5t53 -122.5l-63 -27v0z" />
    <glyph glyph-name="parenright.subs" unicode="&#x208e;" horiz-adv-x="253" 
d="M37 -287q36 60 52.5 122.5t16.5 129.5t-16.5 129.5t-52.5 122.5l63 27q43 -63 66 -127.5t23 -151.5t-23 -151.5t-66 -127.5l-63 27v0z" />
    <glyph glyph-name="uni0259.sups" unicode="&#x2094;" horiz-adv-x="341" 
d="M162 252q-38 0 -64 13.5t-43 36t-24.5 50t-7.5 56.5q0 12 1 19.5t4 18.5h206q-4 39 -24.5 61t-59.5 22q-21 0 -39.5 -6t-36.5 -17l-29 51q25 17 54 27t60 10q71 0 113 -46t42 -125q0 -39 -12 -71t-32.5 -54t-48.5 -34t-59 -12zM161 316q30 0 50 19.5t24 60.5h-141
q0 -33 15.5 -56.5t51.5 -23.5z" />
    <glyph glyph-name="colonmonetary" unicode="&#x20a1;" horiz-adv-x="513" 
d="M251 100q22 -16 47 -20l56 475q-12 3 -25 3q-6 0 -12 -0.5t-12 -1.5zM259 540q-42 -25 -63.5 -81.5t-21.5 -138.5q0 -113 38 -177zM497 81q-34 -42 -75 -65.5t-92 -26.5l-12 -99h-43l12 99q-28 3 -48 10l-13 -109h-44l15 127q-64 35 -101.5 111t-37.5 188q0 68 15 123.5
t43 97t67.5 68.5t88.5 37l12 104h44l-12 -98h16q16 0 33 -3l12 101h43l-14 -113q53 -23 88 -69l-65 -63q-8 10 -16.5 18.5t-17.5 15.5l-54 -456q27 5 49 20.5t42 41.5z" />
    <glyph glyph-name="lira" unicode="&#x20a4;" horiz-adv-x="513" 
d="M476 98v-98h-425v71q46 23 74.5 63.5t31.5 91.5h-104v56l71 6h27q-3 14 -7 26.5t-8 26.5h-83v57l59 5h6q-3 13 -5 25.5t-2 25.5q0 45 14.5 81t41 61t63.5 38.5t81 13.5q55 0 94.5 -21t69.5 -57l-64 -63q-19 22 -40 34.5t-50 12.5q-47 0 -73 -27.5t-26 -78.5q0 -20 5 -45
h166v-62h-151q3 -13 6.5 -26t5.5 -27h139v-62h-134q-2 -40 -14.5 -68.5t-38.5 -55.5v-4h270z" />
    <glyph glyph-name="uni20A6" unicode="&#x20a6;" horiz-adv-x="513" 
d="M348 343h-57l1 -2l16 -53h45zM357 238h-35l43 -146h4zM224 288l-3 8l-14 47h-46l4 -54v-1h59zM157 392h36l-45 152h-4zM434 343v-55h70v-50h-70v-238h-111l-82 238h-76v-238h-86v238h-72v45l72 5v55h-72v44l72 5v244h111l84 -244h74v244h86v-244h70v-49h-70z" />
    <glyph glyph-name="peseta" unicode="&#x20a7;" horiz-adv-x="513" 
d="M212 303q51 0 82 24.5t39 70.5h-150v-95h29zM183 562v-90h150q-9 48 -39.5 69t-81.5 21h-29zM502 398h-60q-6 -43 -25.5 -75t-49 -53t-67 -31.5t-79.5 -10.5h-38v-228h-109v398h-68v68l68 5v165h147q43 0 80.5 -9t66.5 -28.5t48.5 -50.5t25.5 -76h60v-74z" />
    <glyph glyph-name="dong" unicode="&#x20ab;" horiz-adv-x="513" 
d="M79 62h379v-62h-379v62zM329 368q-20 18 -37 26t-40 8q-35 0 -60.5 -27t-25.5 -72q0 -55 21.5 -83t60.5 -28q23 0 42 10t39 34v132zM501 600v-56l-76 -6v-415h-79l-8 40h-2q-21 -23 -49 -36.5t-62 -13.5q-72 0 -115.5 48.5t-43.5 140.5q0 42 14 75.5t37.5 56.5t53 35.5
t60.5 12.5q35 0 57 -11.5t45 -31.5l-4 75v24h-145v62h145v58h96v-58h76z" />
    <glyph glyph-name="Euro" unicode="&#x20ac;" horiz-adv-x="513" 
d="M505 81q-35 -45 -78.5 -69t-98.5 -24q-92 0 -157.5 61t-85.5 176h-63v56l57 4q-1 8 -1 15.5v15.5v15t1 14h-57v56l63 4q10 58 32.5 103t55.5 76t75 47.5t92 16.5q45 0 86 -21t70 -57l-65 -63q-20 23 -42.5 37t-51.5 14q-54 0 -89 -40t-47 -112h234v-61h-240q-1 -6 -1 -12
v-13v-17.5t1 -16.5h200v-61h-193q14 -70 48 -108.5t85 -38.5q32 0 57 16t48 47z" />
    </font>
</defs>
</svg>
